Marvel's Avengers Deluxe Edition (супер цена) 159р. Внимание количество ограничено!!!

2 сезон

iTunes

iTunes

1

iTunes

iTunes

iTunes

WEBRip

iTunes

30
pack

Новость дня

ВАЖНО

!!Акция!!

Alien_RageХит недели

RePack

Horizon Zero Dawn

ИГРА 18+

pack

RePack

jed

!!Акция!!

Alien_Rage

RePack

fifa19

RePack

Assassins Creed: Odyssey

RePack

NEED FOR SPEED™ PAYBACK

4 сезон

9 сезон

Бесстыжие 9 сезон

Все сериалы

все сериалы на PB.wtf

RePack

FAR CRY 5
  

Рапунцель: Запутанная история / Tangled (Натан Грено, Байрон Ховард) [2010, Мультфильм, мюзикл, фэнтези, мелодрама, комедия, UHD BDRemux 2160p] DUB [Лицензия] +DVO+2xAVO piratbit.pw

Рапунцель: Запутанная история через торрент piratbit.pw

Размер: 48.95 GB | Добавлен: 10 мес. назад | Торрент скачан:9 раз
Скачать  

27-10-2019 00:27 Рапунцель: Запутанная история Скачать торрент  

Рапунцель: Запутанная история / Tangled
Год выпуска: 2010
Страна: США
Студия: Walt Disney Animation Studios, Walt Disney Pictures
Жанр: Мультфильм, мюзикл, фэнтези, мелодрама, комедия, полнометражный
Продолжительность: 01:40:57
Перевод:

#1: Дублированный | Лицензия
#2: Профессиональный многоголосый | Кубик в кубике
#3: Авторский | Сербин
#4: Авторский | Гаврилов №1
#5: Авторский | Гаврилов №2

Субтитры: Русские (Full), английские

Режиссер: Натан Грено, Байрон Ховард

rating

В ролях: Мэнди Мур, Закари Ливай, Донна Мёрфи, Рон Перлман, М. К. Гейни, Джеффри Тэмбор, Брэд Гэррет, Пол Ф. Томпкинс, Ричард Кил, Делани Роуз Стейн

Описание: "Столько дней у окна сидела, столько лет мучилась, ждала! Я жила и не замечала, как была слепа..." А как же иначе, если за все 18 лет, так и не удалось покинуть свою высокую башню? Ведь мама предупредила, что мир жесток и коварен, а хорошие девочки, как известно, должны маму слушаться! Даже если у них удивительные странные светящиеся волосы, даже если внезапно оказавшийся рядом симпатяга-авантюрист предлагает помочь исполнить заветную мечту, что живет в глубине души вопреки всему! А ради исполнения такой мечты всегда приходится чем-то жертвовать, не правда ли?!... По мотивам сказки братьев Гримм «Рапунцель».

Качество: UHD BDRemux 2160p
Формат: MKV

Видео: 3840x2160 at 23.976 fps, MPEG-H HEVC HDR Video, 52500 kbps avg
Аудио #01: 48 kHz, AC3, 5.1, 640 Kbps | Лицензия | RUS |
Аудио #02: 48 kHz, DTS-HD HRA, 7.1, 2046 Kbps | Кубик в кубике | RUS |
Аудио #03: 48 kHz, DTS-HD HRA, 7.1, 2046 Kbps | Сербин | RUS |
Аудио #04: 48 kHz, DTS-HD HRA, 7.1, 2046 Kbps | Гаврилов №1 | RUS |
Аудио #05: 48 kHz, DTS-HD HRA, 7.1, 2046 Kbps | Гаврилов №2 | RUS |
Аудио #06: 48 kHz, TrueHD, 7.1, 7753 Kbps | Оригинал | ENG |
Аудио #07: 48 kHz, AC3, 5.1, 640 Kbps | Оригинал | ENG |
скриншот  скриншот  скриншот  скриншот  скриншот  

General
Unique ID : 229036038168939828954623267259503407283 (0xAC4EBC865EF646566BEC6AD255FCF0B3)
Complete name : F:VideoTangled.2010.BDREMUX.2160p.HDR.seleZen.mkv
Format : Matroska
Format version : Version 4
File size : 48.9 GiB
Duration : 1 h 40 min
Overall bit rate mode : Variable
Overall bit rate : 69.4 Mb/s
Movie name : Tangled 2010 4K from селезень
Encoded date : UTC 2019-10-26 15:18:25
Writing application : mkvmerge v22.0.0 ('At The End Of The World') 64-bit
Writing library : libebml v1.3.5 + libmatroska v1.4.8

Video
ID : 1
Format : HEVC
Format/Info : High Efficiency Video Coding
Format profile : Main 10@L5.1@High
HDR format : SMPTE ST 2086, HDR10 compatible
Codec ID : V_MPEGH/ISO/HEVC
Duration : 1 h 40 min
Bit rate : 52.5 Mb/s
Width : 3 840 pixels
Height : 2 160 pixels
Display aspect ratio : 16:9
Frame rate mode : Constant
Frame rate : 23.976 (24000/1001) FPS
Color space : YUV
Chroma subsampling : 4:2:0 (Type 2)
Bit depth : 10 bits
Bits/(Pixel*Frame) : 0.264
Stream size : 36.8 GiB (75%)
Writing library : ATEME Titan File 3.9.0 (4.9.0.0)
Language : English
Default : No
Forced : No
Color range : Limited
Color primaries : BT.2020
Transfer characteristics : PQ
Matrix coefficients : BT.2020 non-constant
Mastering display color pri : Display P3
Mastering display luminance : min: 0.0001 cd/m2, max: 1000 cd/m2

Audio #1
ID : 2
Format : AC-3
Format/Info : Audio Coding 3
Commercial name : Dolby Digital
Codec ID : A_AC3
Duration : 1 h 40 min
Bit rate mode : Constant
Bit rate : 640 kb/s
Channel(s) : 6 channels
Channel layout : L R C LFE Ls Rs
Sampling rate : 48.0 kHz
Frame rate : 31.250 FPS (1536 SPF)
Bit depth : 16 bits
Compression mode : Lossy
Stream size : 459 MiB (1%)
Title : Dub [License]
Language : Russian
Service kind : Complete Main
Default : Yes
Forced : Yes

Audio #2
ID : 3
Format : DTS XBR
Format/Info : Digital Theater Systems
Commercial name : DTS-HD High Resolution Audio
Codec ID : A_DTS
Duration : 1 h 40 min
Bit rate mode : Constant
Bit rate : 2 046 kb/s
Channel(s) : 8 channels
Channel layout : C L R LFE Lb Rb Lss Rss
Sampling rate : 48.0 kHz
Frame rate : 93.750 FPS (512 SPF)
Bit depth : 24 bits
Compression mode : Lossy
Stream size : 1.44 GiB (3%)
Title : MVO [Кубик в кубике]
Language : Russian
Default : No
Forced : No

Audio #3
ID : 4
Format : DTS XBR
Format/Info : Digital Theater Systems
Commercial name : DTS-HD High Resolution Audio
Codec ID : A_DTS
Duration : 1 h 40 min
Bit rate mode : Constant
Bit rate : 2 046 kb/s
Channel(s) : 8 channels
Channel layout : C L R LFE Lb Rb Lss Rss
Sampling rate : 48.0 kHz
Frame rate : 93.750 FPS (512 SPF)
Bit depth : 24 bits
Compression mode : Lossy
Stream size : 1.44 GiB (3%)
Title : AVO [Сербин]
Language : Russian
Default : No
Forced : No

Audio #4
ID : 5
Format : DTS XBR
Format/Info : Digital Theater Systems
Commercial name : DTS-HD High Resolution Audio
Codec ID : A_DTS
Duration : 1 h 40 min
Bit rate mode : Constant
Bit rate : 2 046 kb/s
Channel(s) : 8 channels
Channel layout : C L R LFE Lb Rb Lss Rss
Sampling rate : 48.0 kHz
Frame rate : 93.750 FPS (512 SPF)
Bit depth : 24 bits
Compression mode : Lossy
Stream size : 1.44 GiB (3%)
Title : AVO [Гаврилов №1]
Language : Russian
Default : No
Forced : No

Audio #5
ID : 6
Format : DTS XBR
Format/Info : Digital Theater Systems
Commercial name : DTS-HD High Resolution Audio
Codec ID : A_DTS
Duration : 1 h 40 min
Bit rate mode : Constant
Bit rate : 2 046 kb/s
Channel(s) : 8 channels
Channel layout : C L R LFE Lb Rb Lss Rss
Sampling rate : 48.0 kHz
Frame rate : 93.750 FPS (512 SPF)
Bit depth : 24 bits
Compression mode : Lossy
Stream size : 1.44 GiB (3%)
Title : AVO [Гаврилов №2]
Language : Russian
Default : No
Forced : No

Audio #6
ID : 7
Format : MLP FBA 16-ch
Format/Info : Meridian Lossless Packing FBA with 16-channel presentation
Commercial name : Dolby TrueHD with Dolby Atmos
Codec ID : A_TRUEHD
Duration : 1 h 40 min
Bit rate mode : Variable
Bit rate : 7 753 kb/s
Maximum bit rate : 9 480 kb/s
Channel(s) : 8 channels
Channel layout : L R C LFE Ls Rs Lb Rb
Sampling rate : 48.0 kHz
Frame rate : 1 200.000 FPS (40 SPF)
Compression mode : Lossless
Stream size : 5.43 GiB (11%)
Title : Original
Language : English
Default : No
Forced : No
Number of dynamic objects : 13
Bed channel count : 1 channel
Bed channel configuration : LFE

Audio #7
ID : 8
Format : AC-3
Format/Info : Audio Coding 3
Commercial name : Dolby Digital
Codec ID : A_AC3
Duration : 1 h 40 min
Bit rate mode : Constant
Bit rate : 640 kb/s
Channel(s) : 6 channels
Channel layout : L R C LFE Ls Rs
Sampling rate : 48.0 kHz
Frame rate : 31.250 FPS (1536 SPF)
Bit depth : 16 bits
Compression mode : Lossy
Stream size : 459 MiB (1%)
Language : English
Service kind : Complete Main
Default : No
Forced : No

Text #1
ID : 9
Format : UTF-8
Codec ID : S_TEXT/UTF8
Codec ID/Info : UTF-8 Plain Text
Duration : 1 h 30 min
Bit rate : 76 b/s
Count of elements : 924
Stream size : 50.9 KiB (0%)
Title : Full
Language : Russian
Default : No
Forced : No

Text #2
ID : 10
Format : UTF-8
Codec ID : S_TEXT/UTF8
Codec ID/Info : UTF-8 Plain Text
Duration : 1 h 30 min
Bit rate : 52 b/s
Count of elements : 1071
Stream size : 35.0 KiB (0%)
Title : Full
Language : English
Default : No
Forced : No

Menu
00:00:00.000 : en:The Lost Princess
00:08:20.958 : en:Mother Knows Best
00:15:43.275 : en:Meet Flynn Rider
00:24:41.229 : en:Making a Deal
00:34:42.163 : en:The Snuggly Duckling
00:42:30.881 : en:The Escape
00:50:25.939 : en:In the Woods
00:59:21.933 : en:The Best Day of Your Life
01:10:35.647 : en:Betrayed
01:19:23.425 : en:The Rescue
01:25:22.033 : en:A New Dream
01:31:20.891 : en:End Credits

piratbit.pw



Скачать Рапунцель: Запутанная история через торрент https://img16.lostpic.net/2019/10/26/2e421e81e549f6ff140dd6a420d87cb0.jpg Скачать фильм Рапунцель: Запутанная история через торрент бесплантно в хорошем качестве Описание: "Столько дней у окна сидела, столько лет мучилась, ждала! Я жила и не замечала, как была слепа..." А как же иначе, если за все 18 ... 10 10 2
Торрент: Зарегистрирован [2019-10-27 00:27] · скачан: 9 раз
Статус: √ проверено
Размер: 48.95 GB
Как cкачать? Как скачать Рапунцель: Запутанная история через торрент | qTorrent

% Раздел Тема Автор DL S | L
Ultra HD (UHD: 2K, 4K, 8K) [ 19.63 GB ] Рапунцель: Запутанная история / Tangled [2010 Мультфильм мюзикл UHD BDRip 2160p] [SDR] DUB [] +2xAVO bober100 Скачать
2 | 0
Ultra HD (UHD: 2K, 4K, 8K) [ 14.92 GB ] Рапунцель: Запутанная история / Tangled [2010 Мультфильм мюзикл UHD BDRip 2160p] DUB [] +2xAVO bober100 Скачать
2 | 0

28-11-2019 20:33  

Отключить всю рекламу на сайте

    Дорогой пользователь! Огромная просьба, поблагодарите релизера, оцените раздачу и оставьте свои комментарий, если Вы скачали Рапунцель: Запутанная история через торрент бесплатно! Внесите свою лепту в развитие PiratBit!
    Комментировать посты могут только пользователи прошедшие не сложную регистрацию
    Показать сообщения:    

    Рапунцель: Запутанная история через торрент
    Скачать бесплатно Рапунцель: Запутанная история
    Рапунцель: Запутанная история скачать торрент
    Рапунцель: Запутанная история смотреть онлайн
    Cкачать фильм Рапунцель: Запутанная история бесплатно
    Рапунцель: Запутанная история скачать торрент в хорошем качестве
    Рапунцель: Запутанная история смотреть онлайн бесплатно в хорошем качестве


    Вы не можете начинать темы
    Вы не можете отвечать на сообщения
    Вы не можете редактировать свои сообщения
    Вы не можете удалять свои сообщения
    Вы не можете голосовать в опросах
    Вы не можете прикреплять файлы к сообщениям
    Вы можете скачивать файлы