Ссылка на приватное зеркало нашего сайта всего за 1$. Внимание количество ограничено!!!

2 сезон

iTunes

iTunes

1

iTunes

iTunes

iTunes

WEBRip

iTunes

30
pack

Новость дня

ВАЖНО

!!Акция!!

Alien_RageХит недели

RePack

Horizon Zero Dawn

ИГРА 18+

pack

RePack

jed

!!Акция!!

Alien_Rage

RePack

fifa19

RePack

Assassins Creed: Odyssey

RePack

NEED FOR SPEED™ PAYBACK

4 сезон

9 сезон

Бесстыжие 9 сезон

Все сериалы

все сериалы на PB.wtf

RePack

FAR CRY 5
  

Город героев / Big Hero 6 (Дон Холл, Крис Уильямс) [2014, Мультфильм, фантастика, комедия, UHD BDRemux 2160p] DUB [Лицензия] +2xAVO piratbit.pw

Город героев через торрент piratbit.pw

Размер: 54.67 GB | Добавлен: 10 мес. назад | Торрент скачан:6 раз
Скачать  

27-10-2019 00:19 Город героев Скачать торрент  

Город героев / Big Hero 6
Год выпуска: 2014
Страна: США
Студия: Walt Disney Animation Studios, Walt Disney Pictures
Жанр: Мультфильм, фантастика, комедия
Продолжительность: 01:41:52
Перевод:

#1: Дублированный | Лицензия
#2: Авторский | Сербин
#3: Авторский | Живов

Субтитры: Русские (Full), английские

Режиссер: Дон Холл, Крис Уильямс (I)

rating

В ролях:

Райан Поттер (Hiro, озвучка), Скотт Эдсит (Baymax, озвучка), Дэниэл Хенни (Tadashi, озвучка), ТиДжей Миллер (Fred, озвучка), Джейми Чанг (Go Go, озвучка), Дэймон Уайанс мл. (Wasabi, озвучка), Дженезис Родригез (Honey Lemon, озвучка), Джеймс Кромуэлл (Robert Callaghan, озвучка), Алан Тьюдик (Alistair Krei, озвучка), Майя Рудольф (Cass, озвучка), Абрахам Бенруби (General, озвучка), Кэти Лоус (Abigail, озвучка)
Описание: Юный Хиро Хамада — прирожденный изобретатель и гений конструирования роботов. Вместе со старшим братом Тадаши они воплощают в жизнь самые передовые идеи в Техническом университете города будущего Сан-Франсокио. После серии загадочных событий друзья оказываются в центре коварного заговора. Отчаявшись, Хиро решает использовать веселого и добродушного экспериментального робота Бэймакса, перепрограммировав его в неуязвимую боевую машину.

Качество: UHD BDRemux 2160p
Формат: MKV

Видео: 3840x2160 at 23.976 fps, MPEG-H HEVC HDR Video, 58800 kbps avg
Аудио #01: 48 kHz, AC3, 5.1, 640 Kbps | Лицензия | RUS |
Аудио #02: 48 kHz, DTS-HD MA, 7.1, 4617 Kbps | Сербин | RUS |
Аудио #03: 48 kHz, DTS-HD MA, 7.1, 4625 Kbps | Живов | RUS |
Аудио #04: 48 kHz, TrueHD, 7.1, 7470 Kbps | Оригинал | ENG |
Аудио #05: 48 kHz, AC3, 5.1, 640 Kbps | Оригинал | ENG |
скриншот  скриншот  скриншот  скриншот  скриншот  

General
Unique ID : 139259780437616056678039017686053845594 (0x68C475474F7363E1B047E3C36B0A7A5A)
Complete name : F:VideoBig.Hero.6.2014.BDREMUX.2160p.HDR.seleZen.mkv
Format : Matroska
Format version : Version 4
File size : 54.7 GiB
Duration : 1 h 41 min
Overall bit rate mode : Variable
Overall bit rate : 76.8 Mb/s
Movie name : Big Hero 6 2014 4K from селезень
Encoded date : UTC 2019-10-26 18:20:57
Writing application : mkvmerge v22.0.0 ('At The End Of The World') 64-bit
Writing library : libebml v1.3.5 + libmatroska v1.4.8

Video
ID : 1
Format : HEVC
Format/Info : High Efficiency Video Coding
Format profile : Main 10@L5.1@High
HDR format : SMPTE ST 2086, HDR10 compatible
Codec ID : V_MPEGH/ISO/HEVC
Duration : 1 h 41 min
Bit rate : 58.8 Mb/s
Width : 3 840 pixels
Height : 2 160 pixels
Display aspect ratio : 16:9
Frame rate mode : Constant
Frame rate : 23.976 (24000/1001) FPS
Color space : YUV
Chroma subsampling : 4:2:0 (Type 2)
Bit depth : 10 bits
Bits/(Pixel*Frame) : 0.295
Stream size : 41.8 GiB (76%)
Language : English
Default : Yes
Forced : No
Color range : Limited
Color primaries : BT.2020
Transfer characteristics : PQ
Matrix coefficients : BT.2020 non-constant
Mastering display color pri : Display P3
Mastering display luminance : min: 0.0001 cd/m2, max: 1000 cd/m2

Audio #1
ID : 2
Format : AC-3
Format/Info : Audio Coding 3
Commercial name : Dolby Digital
Codec ID : A_AC3
Duration : 1 h 41 min
Bit rate mode : Constant
Bit rate : 640 kb/s
Channel(s) : 6 channels
Channel layout : L R C LFE Ls Rs
Sampling rate : 48.0 kHz
Frame rate : 31.250 FPS (1536 SPF)
Bit depth : 16 bits
Compression mode : Lossy
Stream size : 466 MiB (1%)
Title : Dub [License]
Language : Russian
Service kind : Complete Main
Default : Yes
Forced : Yes

Audio #2
ID : 3
Format : DTS XLL
Format/Info : Digital Theater Systems
Commercial name : DTS-HD Master Audio
Codec ID : A_DTS
Duration : 1 h 41 min
Bit rate mode : Variable
Bit rate : 4 617 kb/s
Channel(s) : 8 channels
Channel layout : C L R LFE Lb Rb Lss Rss
Sampling rate : 48.0 kHz
Frame rate : 93.750 FPS (512 SPF)
Bit depth : 24 bits
Compression mode : Lossless
Stream size : 3.29 GiB (6%)
Title : AVO [Сербин]
Language : Russian
Default : No
Forced : No

Audio #3
ID : 4
Format : DTS XLL
Format/Info : Digital Theater Systems
Commercial name : DTS-HD Master Audio
Codec ID : A_DTS
Duration : 1 h 41 min
Bit rate mode : Variable
Bit rate : 4 625 kb/s
Channel(s) : 8 channels
Channel layout : C L R LFE Lb Rb Lss Rss
Sampling rate : 48.0 kHz
Frame rate : 93.750 FPS (512 SPF)
Bit depth : 24 bits
Compression mode : Lossless
Stream size : 3.29 GiB (6%)
Title : AVO [Живов]
Language : Russian
Default : No
Forced : No

Audio #4
ID : 5
Format : MLP FBA 16-ch
Format/Info : Meridian Lossless Packing FBA with 16-channel presentation
Commercial name : Dolby TrueHD with Dolby Atmos
Codec ID : A_TRUEHD
Duration : 1 h 41 min
Bit rate mode : Variable
Bit rate : 7 470 kb/s
Maximum bit rate : 11.2 Mb/s
Channel(s) : 8 channels
Channel layout : L R C LFE Ls Rs Lb Rb
Sampling rate : 48.0 kHz
Frame rate : 1 200.000 FPS (40 SPF)
Compression mode : Lossless
Stream size : 5.32 GiB (10%)
Title : Original
Language : English
Default : No
Forced : No
Number of dynamic objects : 13
Bed channel count : 1 channel
Bed channel configuration : LFE

Audio #5
ID : 6
Format : AC-3
Format/Info : Audio Coding 3
Commercial name : Dolby Digital
Codec ID : A_AC3
Duration : 1 h 41 min
Bit rate mode : Constant
Bit rate : 640 kb/s
Channel(s) : 6 channels
Channel layout : L R C LFE Ls Rs
Sampling rate : 48.0 kHz
Frame rate : 31.250 FPS (1536 SPF)
Bit depth : 16 bits
Compression mode : Lossy
Stream size : 466 MiB (1%)
Language : English
Service kind : Complete Main
Default : No
Forced : No

Text #1
ID : 7
Format : UTF-8
Codec ID : S_TEXT/UTF8
Codec ID/Info : UTF-8 Plain Text
Duration : 1 h 41 min
Bit rate : 80 b/s
Count of elements : 1272
Stream size : 59.8 KiB (0%)
Title : Full
Language : Russian
Default : No
Forced : No

Text #2
ID : 8
Format : UTF-8
Codec ID : S_TEXT/UTF8
Codec ID/Info : UTF-8 Plain Text
Duration : 1 h 41 min
Bit rate : 80 b/s
Count of elements : 1730
Stream size : 59.8 KiB (0%)
Title : SDH Colored
Language : English
Default : No
Forced : No

Menu
00:00:00.000 : en:Hustle
00:07:15.477 : en:Nerd School
00:14:37.627 : en:Showcast
00:21:48.974 : en:Tragedy
00:24:32.680 : en:A New Friend
00:29:34.523 : en:Being Helpful
00:36:57.882 : en:Upgrаdе
00:44:18.114 : en:The Chase
00:50:48.879 : en:Fred's House
00:54:32.811 : en:Training
01:00:43.932 : en:Secret Lair
01:07:12.403 : en:Big Reveal
01:11:54.435 : en:Putting It All Together
01:16:26.457 : en:Saving the Day!
01:24:43.954 : en:The Portal
01:31:52.549 : en:End Credits

piratbit.pw



Скачать Город героев через торрент https://img16.lostpic.net/2019/10/26/aa37821429a0194d796f2a6b3d1a955b.jpg Скачать фильм Город героев через торрент бесплантно в хорошем качестве Описание: Юный Хиро Хамада — прирожденный изобретатель и гений конструирования роботов. Вместе со старшим братом Тадаши они воплощают в ... 10 10 2
Торрент: Зарегистрирован [2019-10-27 00:19] · скачан: 6 раз
Статус: √ проверено
Размер: 54.67 GB
Как cкачать? Как скачать Город героев через торрент | qTorrent

% Раздел Тема Автор DL S | L
Зарубежные Мультфильмы (BDRip 1080p, 720p, Blu-ray, BD-Remux) [ 29.69 GB ] Город героев / Big Hero 6 [2014 мультфильм BD-Remux 2xDUB+2xAVO+Original] от R.G. HD-Films Seedtank Скачать
1 | 0
Зарубежные Мультфильмы (BDRip 1080p, 720p, Blu-ray, BD-Remux) [ 15 GB ] Город героев / Big Hero 6 [2014 мультфильм BDRip 1080p] 2xDub + 2xAVO + Original + Sub Seedtank Скачать
1 | 0

28-11-2019 20:33  

Отключить всю рекламу на сайте

    Дорогой пользователь! Огромная просьба, поблагодарите релизера, оцените раздачу и оставьте свои комментарий, если Вы скачали Город героев через торрент бесплатно! Внесите свою лепту в развитие PiratBit!
    Комментировать посты могут только пользователи прошедшие не сложную регистрацию
    Показать сообщения:    

    Город героев через торрент
    Скачать бесплатно Город героев
    Город героев скачать торрент
    Город героев смотреть онлайн
    Cкачать фильм Город героев бесплатно
    Город героев скачать торрент в хорошем качестве
    Город героев смотреть онлайн бесплатно в хорошем качестве


    Вы не можете начинать темы
    Вы не можете отвечать на сообщения
    Вы не можете редактировать свои сообщения
    Вы не можете удалять свои сообщения
    Вы не можете голосовать в опросах
    Вы не можете прикреплять файлы к сообщениям
    Вы можете скачивать файлы