1 сезон

1 сезон

iTunes

1

КиноПоиск HD

Кинопоиск HD

iTunes

13

1 сезон

RePack

30

Новинка

ВАЖНО

ИГРА 18+

pack

RePack

MK11
pack

Легкие деньги

RePack

jed

RePack

fifa19

RePack

RDR2

RePack

NEED FOR SPEED™ PAYBACK

4 сезон

9 сезон

Бесстыжие 9 сезон

Все сериалы

все сериалы на PB.wtf

RePack

FAR CRY 5
  
Magnet ссылка

Соловей / The Nightingale (Дженнифер Кент) [2018, Триллер, драма, приключения, WEB-DL 1080p] AVO [А.Важенин [BadBajo] piratbit.pw

Соловей через торрент piratbit.pw

Размер: 8.14 GB | Добавлен: 1 год 5 мес. назад | Торрент скачан:31 раз
Скачать  

26-10-2019 06:12 Соловей Скачать торрент  

Соловей / The Nightingale
Год выпуска: 2018
Страна: Австралия, США, Канада
Жанр: Триллер, драма, приключения
Продолжительность: 02:16:06
Перевод: Авторский (одноголосый) |
Субтитры: Английские (отключаемые)

Режиссер: Дженнифер Кент

rating


В ролях: Эшлинг Франчози, Сэм Клафлин, Байкали Ганамбарр, Дэймон Херриман, Гарри Гринвуд, Ивен Лесли, Чарли Шотуэлл, Майкл Шисби, Мэтью Сандерлэнд, Манолья Маймуру

Описание: 1825 год, Австралия. Молодая ирландка Клэр преследует британских офицеров, чтобы отомстить за убийство мужа и ребёнка. Во время своего путешествия она встречает аборигена Билли, который соглашается ей помочь.

Качество: WEB-DL 1080p
Формат: MKV

Видео: MPEG-4 AVC, 1440х1080, ~7282 Kbps, 24.000 FPS
Аудио#1: Русский: AC3, 6 ch, 640 Kbps (BadBajo)
Аудио#2: Английский: Е-AC3, 6 ch, 640 Kbps
скриншот  скриншот  скриншот  скриншот  скриншот  

Общее
Уникальный идентификатор : 311735333884051290648193311131424581456 (0xEA860A9AD5982687E23DD5DC8110E750)
Полное имя : D:\The.Nightingale.2018.1080p.AMZN.WEB-DL.DDP5.1.H.264_rus_BadBajo.mkv
Формат : Matroska
Версия формата : Version 4 / Version 2
Размер файла : 8,14 Гбайт
Продолжительность : 2 ч. 16 м.
Общий поток : 8564 Кбит/сек
Название фильма : The.Nightingale.2018.1080p.AMZN.WEB-DL.DDP5.1.H.264_rus_BadBajo
Дата кодирования : UTC 2019-10-26 03:53:31
Программа кодирования : mkvmerge v33.1.0 ('Primrose') 64-bit
Библиотека кодирования : libebml v1.3.7 + libmatroska v1.5.0
Обложка : Yes
Attachments : cover.jpg / small_cover.jpg

Видео
Идентификатор : 1
Формат : AVC
Формат/Информация : Advanced Video Codec
Профиль формата : High@L4
Параметр CABAC формата : Да
Параметр RefFrames формата : 4 кадра
Идентификатор кодека : V_MPEG4/ISO/AVC
Продолжительность : 2 ч. 16 м.
Вид битрейта : Постоянный
Битрейт : 7282 Кбит/сек
Номинальный битрейт : 10000 Кбит/сек
Ширина : 1440 пикселей
Высота : 1080 пикселей
Соотношение сторон : 4:3
Режим частоты кадров : Постоянный
Частота кадров : 24,000 кадра/сек
Цветовое пространство : YUV
Субдискретизация насыщенности : 4:2:0
Битовая глубина : 8 бит
Тип развёртки : Прогрессивная
Бит/(Пиксели*Кадры) : 0.191
Размер потока : 6,76 Гбайт (83%)
Default : Да
Forced : Нет
Цветовой диапазон : Limited
Основные цвета : BT.709
Характеристики трансфера : BT.709
Коэффициенты матрицы : BT.709

Аудио #1
Идентификатор : 2
Формат : AC-3
Формат/Информация : Audio Coding 3
Расширение режима : CM (complete main)
Параметр Endianness формата : Big
Идентификатор кодека : A_AC3
Продолжительность : 2 ч. 16 м.
Вид битрейта : Постоянный
Битрейт : 640 Кбит/сек
Каналы : 6 каналов
Расположение каналов : Front: L C R, Side: L R, LFE
Частота : 48,0 КГц
Частота кадров : 31,250 кадров/сек (1536 spf)
Метод сжатия : С потерями
Размер потока : 623 Мбайт (7%)
Заголовок : The.Nightingale.2018.AC3_rus_BadBajo
Язык : Russian
Default : Да
Forced : Да

Аудио #2
Идентификатор : 3
Формат : E-AC-3
Формат/Информация : Audio Coding 3
Параметр Endianness формата : Big
Идентификатор кодека : A_EAC3
Продолжительность : 2 ч. 16 м.
Вид битрейта : Постоянный
Битрейт : 640 Кбит/сек
Каналы : 6 каналов
Расположение каналов : Front: L C R, Side: L R, LFE
Частота : 48,0 КГц
Частота кадров : 187,500 кадров/сек (256 spf)
Метод сжатия : С потерями
Размер потока : 623 Мбайт (7%)
Заголовок : The.Nightingale.2018.1080p.EAC3_eng
Язык : English
Default : Нет
Forced : Нет

Текст #1
Идентификатор : 4
Формат : UTF-8
Идентификатор кодека : S_TEXT/UTF8
Идентификатор кодека/Информация : UTF-8 Plain Text
Язык : English
Default : Нет
Forced : Нет

Текст #2
Идентификатор : 5
Формат : UTF-8
Идентификатор кодека : S_TEXT/UTF8
Идентификатор кодека/Информация : UTF-8 Plain Text
Заголовок : SDH
Язык : English
Default : Нет
Forced : Нет

piratbit.pw



Скачать Соловей через торрент https://c.radikal.ru/c43/1910/fc/51623f52d5be.jpg Скачать фильм Соловей через торрент бесплантно в хорошем качестве Описание: 1825 год, Австралия. Молодая ирландка Клэр преследует британских офицеров, чтобы отомстить за убийство мужа и ребёнка. Во время ... 9 10 3
Торрент: Зарегистрирован [2019-10-26 06:12] · скачан: 31 раз
Статус: √ проверено
Размер: 8.14 GB
Как cкачать? Как скачать Соловей через торрент | UTorrent

% Раздел Тема Автор DL S | L
Фильмы 2018 [DVDrip, WEB-DLRip, HDrip] (DUB, MVO) [ 1.46 GB ] Соловей / The Nightingale [2018 BDRip] MVO [Pazl Voice] bober100 Скачать
1 | 0
Фильмы 2018 [DVDrip, WEB-DLRip, HDrip] (DUB, MVO) [ 2.18 GB ] Соловей / The Nightingale [2018 BDRip] MVO [Pazl Voice] bober100 Скачать
1 | 0
Фильмы [HD 720p, 1080p] (Хороший звук DUB, MVO) [ 9.86 GB ] Соловей / The Nightingale [2018 BDRip 1080p] MVO [Pazl Voice] bober100 Скачать
1 | 0
Фильмы с авторской озвучкой [ 2.11 GB ] Соловей / The Nightingale [2018 BDRip-AVC] AVO [А.Важенин [BadBajo] - ExKinoRay Enigma2010 Скачать
2 | 0
Фильмы с авторской озвучкой [ 1.92 GB ] Соловей / The Nightingale [2018 WEB-DLRip-AVC] AVO [А.Важенин [BadBajo] - ExKinoRay Enigma2010 Скачать
1 | 0

28-11-2019 20:33  

Отключить всю рекламу на сайте

    Дорогой пользователь! Огромная просьба, поблагодарите релизера, оцените раздачу и оставьте свои комментарий, если Вы скачали Соловей через торрент бесплатно! Внесите свою лепту в развитие PiratBit!
    Комментировать посты могут только пользователи прошедшие не сложную регистрацию
    Показать сообщения:    

    Соловей через торрент
    Скачать бесплатно Соловей
    Соловей скачать торрент
    Соловей смотреть онлайн
    Cкачать фильм Соловей бесплатно
    Соловей скачать торрент в хорошем качестве
    Соловей смотреть онлайн бесплатно в хорошем качестве


    Вы не можете начинать темы
    Вы не можете отвечать на сообщения
    Вы не можете редактировать свои сообщения
    Вы не можете удалять свои сообщения
    Вы не можете голосовать в опросах
    Вы не можете прикреплять файлы к сообщениям
    Вы можете скачивать файлы