Ссылка на приватное зеркало нашего сайта всего за 1$. Внимание количество ограничено!!!

2 сезон

iTunes

iTunes

1

iTunes

iTunes

iTunes

WEBRip

iTunes

30
pack

Вам бонус

ВАЖНО

!!Акция!!

Alien_RageХит недели

RePack

Horizon Zero Dawn

ИГРА 18+

pack

RePack

jed

!!Акция!!

Alien_Rage

RePack

fifa19

RePack

Assassins Creed: Odyssey

RePack

NEED FOR SPEED™ PAYBACK

4 сезон

9 сезон

Бесстыжие 9 сезон

Все сериалы

все сериалы на PB.wtf

RePack

FAR CRY 5
  

Зверополис / Zootopia (Байрон Ховард, Рич Мур, Джаред Буш) [2016, Мультфильм, полнометражный, детский, семейный, комедия, приключения, UHD BDRemux 2160p] DUB [Лицензия] piratbit.pw

Зверополис через торрент piratbit.pw

Размер: 40.46 GB | Добавлен: 10 мес. назад | Торрент скачан:26 раз
Скачать  

25-10-2019 16:54 Зверополис Скачать торрент  

Зверополис / Zootopia
Год выпуска: 2016
Страна: США
Жанр: Мультфильм, полнометражный, детский, семейный, комедия, приключения
Продолжительность: 01:48:44
Перевод: Дублированный | Лицензия
Субтитры: Русские (Full), английские

Режиссер: Байрон Ховард, Рич Мур, Джаред Буш

rating

В ролях:

Джиннифер Гудвин (Judy Hopps, озвучка), Джейсон Бейтман (Nick Wilde, озвучка), Идрис Эльба (Chief Bogo, озвучка), Дженни Слейт (Bellwether, озвучка), Нейт Торренс (Clawhauser, озвучка), Бонни Хант (Bonnie Hopps, озвучка), Дон Лейк (Stu Hopps, озвучка), Томми Чонг (Yax, озвучка), Дж.К. Симмонс (Mayor Lionheart, озвучка), Октавия Спенсер (Mrs. Otterton, озвучка), Алан Тьюдик (Duke Weaselton, озвучка), Шакира (Gazelle, озвучка)
Описание: Зверополис - городской комплекс, представляющий собой умилительное единение всех звеньев пищевой цепочки, которые живут в обособленных районах, полностью соответствующим основным климатическим зонам. Тут вам и элитный участок пустыни с богатыми месторождениями нефти и газа, и заснеженный Тундратаун с засевшим внутри мафиозным кланом под охраной белых медведей, и дождевые леса с повсеместными зарослями, и центральная застройка с деловыми кварталами. Но не все спокойно в зверином королевстве. Один за другим начинают пропадать представители разных видов хищников. И там, где не справляются большие и сильные полицейские со стальными мускулами и натруженным мозжечком, в дело вступает маленькая и пушистая крольчиха Джуди Хопс, первый офицер полиции из кроликов. Взяв в оборот хитрого лиса-комбинатора Ника Уайлда, она преисполнена решимости отыскать пропавших животных. Но невольные напарники даже не представляют, что их ждет...

Качество: UHD BDRemux 2160p
Формат: MKV

Видео: 3840x2160 at 23.976 fps, MPEG-H HEVC HDR Video, 44900 kbps avg
Аудио#1: 48 kHz, AC3, 5.1, 640 Kbps | Лицензия | RUS |
Аудио#2: 48 kHz, TrueHD, 7.1, 7170 Kbps | Оригинал | ENG |
Аудио#3: 48 kHz, AC3, 5.1, 640 Kbps | Оригинал | ENG |
скриншот  скриншот  скриншот  скриншот  скриншот  

General
Unique ID : 85225477273141720519807952957791606614 (0x401DD47264B181CFE52D511207211756)
Complete name : D:Video111Zootopia.2016.BDREMUX.2160p.HDR.seleZen.mkv
Format : Matroska
Format version : Version 4
File size : 40.5 GiB
Duration : 1 h 48 min
Overall bit rate mode : Variable
Overall bit rate : 53.3 Mb/s
Movie name : Zootopia 2016 4K from селезень
Encoded date : UTC 2019-10-25 16:26:56
Writing application : mkvmerge v22.0.0 ('At The End Of The World') 64-bit
Writing library : libebml v1.3.5 + libmatroska v1.4.8

Video
ID : 1
Format : HEVC
Format/Info : High Efficiency Video Coding
Format profile : Main 10@L5.1@High
HDR format : SMPTE ST 2086, HDR10 compatible
Codec ID : V_MPEGH/ISO/HEVC
Duration : 1 h 48 min
Bit rate : 44.9 Mb/s
Width : 3 840 pixels
Height : 2 160 pixels
Display aspect ratio : 16:9
Frame rate mode : Constant
Frame rate : 23.976 (24000/1001) FPS
Color space : YUV
Chroma subsampling : 4:2:0 (Type 2)
Bit depth : 10 bits
Bits/(Pixel*Frame) : 0.226
Stream size : 34.0 GiB (84%)
Writing library : ATEME Titan File 3.9.0 (4.9.0.0)
Language : English
Default : No
Forced : No
Color range : Limited
Color primaries : BT.2020
Transfer characteristics : PQ
Matrix coefficients : BT.2020 non-constant
Mastering display color pri : Display P3
Mastering display luminance : min: 0.0050 cd/m2, max: 4000 cd/m2

Audio #1
ID : 2
Format : AC-3
Format/Info : Audio Coding 3
Commercial name : Dolby Digital
Codec ID : A_AC3
Duration : 1 h 48 min
Bit rate mode : Constant
Bit rate : 640 kb/s
Channel(s) : 6 channels
Channel layout : L R C LFE Ls Rs
Sampling rate : 48.0 kHz
Frame rate : 31.250 FPS (1536 SPF)
Bit depth : 16 bits
Compression mode : Lossy
Stream size : 498 MiB (1%)
Title : Dub [License]
Language : Russian
Service kind : Complete Main
Default : Yes
Forced : Yes

Audio #2
ID : 3
Format : MLP FBA 16-ch
Format/Info : Meridian Lossless Packing FBA with 16-channel presentation
Commercial name : Dolby TrueHD with Dolby Atmos
Codec ID : A_TRUEHD
Duration : 1 h 48 min
Bit rate mode : Variable
Bit rate : 7 170 kb/s
Maximum bit rate : 9 216 kb/s
Channel(s) : 8 channels
Channel layout : L R C LFE Ls Rs Lb Rb
Sampling rate : 48.0 kHz
Frame rate : 1 200.000 FPS (40 SPF)
Compression mode : Lossless
Stream size : 5.44 GiB (13%)
Title : Original
Language : English
Default : No
Forced : No
Number of dynamic objects : 13
Bed channel count : 1 channel
Bed channel configuration : LFE

Audio #3
ID : 4
Format : AC-3
Format/Info : Audio Coding 3
Commercial name : Dolby Digital
Codec ID : A_AC3
Duration : 1 h 48 min
Bit rate mode : Constant
Bit rate : 640 kb/s
Channel(s) : 6 channels
Channel layout : L R C LFE Ls Rs
Sampling rate : 48.0 kHz
Frame rate : 31.250 FPS (1536 SPF)
Bit depth : 16 bits
Compression mode : Lossy
Stream size : 497 MiB (1%)
Language : English
Service kind : Complete Main
Default : No
Forced : No

Text #1
ID : 5
Format : UTF-8
Codec ID : S_TEXT/UTF8
Codec ID/Info : UTF-8 Plain Text
Duration : 1 h 38 min
Bit rate : 122 b/s
Count of elements : 1745
Stream size : 88.6 KiB (0%)
Title : Full
Language : Russian
Default : No
Forced : No

Text #2
ID : 6
Format : UTF-8
Codec ID : S_TEXT/UTF8
Codec ID/Info : UTF-8 Plain Text
Duration : 1 h 39 min
Bit rate : 72 b/s
Count of elements : 1712
Stream size : 52.3 KiB (0%)
Language : English
Default : No
Forced : No

Text #3
ID : 7
Format : UTF-8
Codec ID : S_TEXT/UTF8
Codec ID/Info : UTF-8 Plain Text
Duration : 1 h 38 min
Bit rate : 74 b/s
Count of elements : 1700
Stream size : 54.2 KiB (0%)
Language : English
Default : No
Forced : No

Text #4
ID : 8
Format : UTF-8
Codec ID : S_TEXT/UTF8
Codec ID/Info : UTF-8 Plain Text
Duration : 1 h 45 min
Bit rate : 83 b/s
Count of elements : 2295
Stream size : 64.8 KiB (0%)
Title : SDH
Language : English
Default : No
Forced : No

Menu
00:00:00.000 : en:Prologue
00:00:59.434 : en:Gideon Grey
00:05:49.974 : en:The Police Academy
00:10:05.438 : en:Welcome to Zootopia
00:14:31.412 : en:Meter Maid Duty
00:18:23.894 : en:Pawpsicles
00:26:03.228 : en:The Weasel Chase
00:30:57.313 : en:It's Called a Hustle
00:37:06.974 : en:The Naturalist Club
00:40:43.315 : en:Department of Mammal Vehicles
00:44:31.627 : en:Mr. Big
00:51:40.305 : en:Manchas Goes Savage
00:55:40.253 : en:The Gondola
01:00:48.144 : en:Help From Bellwether
01:03:37.730 : en:Cliffside Asylum
01:09:19.696 : en:We Cracked the Case
01:13:39.039 : en:Hopps Gives Up
01:17:07.247 : en:Hopps Apology
01:21:52.240 : en:Doug's Laboratory
01:28:19.043 : en:The Natural History Museum
01:32:43.307 : en:Epilogue
01:36:12.015 : en:End Credits

piratbit.pw



Скачать Зверополис через торрент https://img15.lostpic.net/2019/10/25/0d5d3c3f889f03867ced32bc39bcee8d.jpg Скачать фильм Зверополис через торрент бесплантно в хорошем качестве Описание: Зверополис - городской комплекс, представляющий собой умилительное единение всех звеньев пищевой цепочки, которые живут в ... 10 10 3
Info! Золотая раздача, скачанное не засчитывается.
Торрент: Зарегистрирован [2019-10-25 16:54] · скачан: 26 раз
Статус: √ проверено
Размер: 40.46 GB
Как cкачать? Как скачать Зверополис через торрент | qTorrent

% Раздел Тема Автор DL S | L
Ultra HD (UHD: 2K, 4K, 8K) [ 13.05 GB ] Зверополис / Zootopia [2016 Мультфильм полнометражный детский UHD BDRip 2160p] DUB [] +AVO bober100 Скачать
2 | 0
Мультфильмы (48-60 fps) [ 3.73 GB ] Зверополис / Zootopia [2016 мультфильм BDRip-HEVC 720p / 60 FPS Оригинал] Tiberiumsun69 Скачать
31 | 0
Иностранные мультфильмы [ 1.46 GB ] Зверополис / Zootopia [2016 мультфильм BDRip-AVC] sokol_ok Скачать
4 | 0
Иностранные мультфильмы [ 740 MB ] Зверополис / Zootopia [2016 мультфильм BDRip-AVC] sokol_ok Скачать
1 | 0
Иностранные мультфильмы [ 2.16 GB ] Зверополис / Zootopia [2016 мультфильм BDRip-AVC] sokol_ok Скачать
1 | 0
R.G.Resident - Мультфильмы, Видео [ 2.62 GB ] Зверополис / Zootopia [2016 мультфильм BDRip-AVC MVO ] R.G.Resident schultz Скачать
1 | 0
Трейлеры и дополнительные материалы к фильмам [ 1.64 GB ] Зверополис / Zootopia [2016 мультфильм DCPRip 2k] [Hi10P Hi444PP] Трейлер D G L от R.G. PiratFilms Messa-fan Скачать
2 | 0

28-11-2019 20:33  

Отключить всю рекламу на сайте

    Дорогой пользователь! Огромная просьба, поблагодарите релизера, оцените раздачу и оставьте свои комментарий, если Вы скачали Зверополис через торрент бесплатно! Внесите свою лепту в развитие PiratBit!
    Комментировать посты могут только пользователи прошедшие не сложную регистрацию
    Показать сообщения:    

    Зверополис через торрент
    Скачать бесплатно Зверополис
    Зверополис скачать торрент
    Зверополис смотреть онлайн
    Cкачать фильм Зверополис бесплатно
    Зверополис скачать торрент в хорошем качестве
    Зверополис смотреть онлайн бесплатно в хорошем качестве


    Вы не можете начинать темы
    Вы не можете отвечать на сообщения
    Вы не можете редактировать свои сообщения
    Вы не можете удалять свои сообщения
    Вы не можете голосовать в опросах
    Вы не можете прикреплять файлы к сообщениям
    Вы можете скачивать файлы