Marvel's Avengers Deluxe Edition (супер цена) 159р. Внимание количество ограничено!!!

2 сезон

iTunes

iTunes

1

iTunes

iTunes

iTunes

WEBRip

iTunes

30
pack

Новость дня

ВАЖНО

!!Акция!!

Alien_RageХит недели

RePack

Horizon Zero Dawn

ИГРА 18+

pack

RePack

jed

!!Акция!!

Alien_Rage

RePack

fifa19

RePack

Assassins Creed: Odyssey

RePack

NEED FOR SPEED™ PAYBACK

4 сезон

9 сезон

Бесстыжие 9 сезон

Все сериалы

все сериалы на PB.wtf

RePack

FAR CRY 5
  

Сторож (Юрий Быков) [2019, драма, триллер, WEB-DL 1080p] piratbit.pw

Сторож через торрент piratbit.pw

Раздают: 4 [ 0 KB/s ]
Размер: 2.92 GB | Добавлен: 10 мес. назад | Торрент скачан:899 раз
Скачать  

24-10-2019 13:44 Сторож Скачать торрент  

Сторож

Страна: Россия
Студия: Инвада Фильм, Артлайт
Жанр: драма, триллер
Год выпуска: 2019
Продолжительность: 01:43:10

Перевод: Не требуется
Субтитры: нет

Режиссёр: Юрий Быков

В ролях: Юрий Быков, Владислав Абашин, Алла Юганова, Александр Кузьмин, Артур Бесчастный, Олег Зима, Гела Месхи, Алексей Симонов, Николай Козак, Дмитрий Блохин

Описание: Размеренную жизнь сторожа заброшенного санатория нарушает приезд странной пары, которая просит остановиться в одном из номеров. Всем троим есть что скрывать и от чего прятаться в снежной глуши.

Sample

Тип релиза: WEB-DL 1080p - Getty
Контейнер: MKV

Видео: MPEG4 AVC Video, H264, 2.40:1, 1920x800, 24 fps, 3588 kbps
Аудио: Russian (AC3, 2 ch, 192 kbps, 16 bits, 48.0 KHz) - оригинал с цензурой
Аудио 2: Russian (AC3, 2 ch, 192 kbps, 16 bits, 48.0 KHz) - оригинал без цензуры 18+
General
Unique ID : 234355031818119408558590079128724875221 (0xB04F2328B0B44DABB63008B7EAFCA7D5)
Complete name : D:\Storozh.2019.WEB-DL.(1080p).Getty.mkv
Format : Matroska
Format version : Version 4 / Version 2
File size : 2.92 GiB
Duration : 1 h 43 min
Overall bit rate mode : Variable
Overall bit rate : 4 053 kb/s
Movie name : Storozh.2019.WEB-DL.(1080p).Getty
Encoded date : UTC 2019-10-24 02:18:15
Writing application : mkvmerge v6.1.0 ('Old Devil') built on Mar 2 2013 14:32:37
Writing library : libebml v1.3.0 + libmatroska v1.4.0

Video
ID : 1
Format : AVC
Format/Info : Advanced Video Codec
Format profile : High@L4
Format settings : CABAC / 5 Ref Frames
Format settings, CABAC : Yes
Format settings, ReFrames : 5 frames
Codec ID : V_MPEG4/ISO/AVC
Duration : 1 h 43 min
Bit rate mode : Variable
Bit rate : 3 588 kb/s
Maximum bit rate : 40.0 Mb/s
Width : 1 920 pixels
Height : 800 pixels
Display aspect ratio : 2.40:1
Frame rate mode : Constant
Frame rate : 24.000 FPS
Color space : YUV
Chroma subsampling : 4:2:0
Bit depth : 8 bits
Scan type : Progressive
Bits/(Pixel*Frame) : 0.097
Stream size : 2.59 GiB (89%)
Default : Yes
Forced : No

Audio #1
ID : 2
Format : AC-3
Format/Info : Audio Coding 3
Codec ID : A_AC3
Duration : 1 h 43 min
Bit rate mode : Constant
Bit rate : 192 kb/s
Channel(s) : 2 channels
Channel positions : Front: L R
Sampling rate : 48.0 kHz
Frame rate : 31.250 FPS (1536 SPF)
Bit depth : 16 bits
Compression mode : Lossy
Stream size : 142 MiB (5%)
Language : Russian
Service kind : Complete Main
Default : Yes
Forced : No

Audio #2
ID : 3
Format : AC-3
Format/Info : Audio Coding 3
Codec ID : A_AC3
Duration : 1 h 43 min
Bit rate mode : Constant
Bit rate : 192 kb/s
Channel(s) : 2 channels
Channel positions : Front: L R
Sampling rate : 48.0 kHz
Frame rate : 31.250 FPS (1536 SPF)
Bit depth : 16 bits
Compression mode : Lossy
Stream size : 142 MiB (5%)
Title : +18
Language : Russian
Service kind : Complete Main
Default : No
Forced : No
скриншот  скриншот  скриншот  
piratbit.pw



Скачать Сторож через торрент https://i91.fastpic.ru/big/2019/1024/7d/ebfa4647e50eb228729839c659943c7d.jpg Скачать фильм Сторож через торрент бесплантно в хорошем качестве Описание: Размеренную жизнь сторожа заброшенного санатория нарушает приезд странной пары, которая просит остановиться в одном из номеров. ... 9.9 10 29
Info! Золотая раздача, скачанное не засчитывается.
Торрент: Зарегистрирован [2019-10-24 13:44] · скачан: 899 раз
Статус: √ проверено
Размер: 2.92 GB
Как cкачать? Как скачать Сторож через торрент | qTorrent

% Раздел Тема Автор DL S | L
Наши сериалы [ 2.64 GB ] Шифр / Сезон: 2 / Серии: 1-4 из 8 [2020 HDTVRip] bober100 Скачать
3 | 1
Наши сериалы [ 10.28 GB ] Шифр / Сезон: 2 / Серии: 1-4 из 8 [2020 HDTV 1080i] bober100 Скачать
7 | 1
* Наши сериалы [ 2.35 GB ] Шифр / Сезон: 2 / Серии: 1-4 из 8 [2020 SATRip] Russian Mafia Скачать
12 | 3
Порно фильмы с сюжетом [ 1.29 GB ] Будь Осторожен в Своих Желаниях / Careful What You Wish For [2020 All Sex Feature WEB-DL] bashai5 Скачать
1 | 0
Фильмы 2019-2020 [DVDrip, WEB-DLRip, HDrip] (DUB, MVO) [ 743 MB ] Сторожка / The Lodge [2019 HDRip] MVO bober100 Скачать
1 | 0
Фильмы 2019-2020 [DVDrip, WEB-DLRip, HDrip] (DUB, MVO) [ 1.41 GB ] Сторожка / The Lodge [2019 BDRip] MVO Twi7ter Скачать
20 | 1
Фильмы (Blu-ray, BD-Remux, HDDVD) [ 18.47 GB ] Сторожка / The Lodge [2019 BD Remux 1080p] MVO bober100 Скачать
1 | 0

28-11-2019 20:33  

Отключить всю рекламу на сайте

24-10-2019 13:57 Сторож Скачать торрент  

будет качество мощнее и чтобы озвучка без цензуры осталась?piratbit.pw
Kkillermax2013 писал(а):

1080 качество, куда уж мощнее то. 4K не ждите



24-10-2019 15:25 Сторож Скачать торрент  

Пересмотрел всё его фильмы - шедевр русского кинематографа. 100 из 10piratbit.pw



24-10-2019 20:10 Сторож Скачать торрент  

Супер! Спасибо. piratbit.pw



25-10-2019 09:48 Сторож Скачать торрент  

личная оценка 0 из 10. имхо худший фильм Быковаpiratbit.pw



04-11-2019 19:06 Сторож Скачать торрент  

Если хуже Завода,то нет смысла и смотреть.Раздающему благодарность.piratbit.pw



24-11-2019 12:35 Сторож Скачать торрент  

МАЙОР у него фильм просто шедевр! Гляну, что это за фильм. Спасибо за раздачу. piratbit.pw



    Дорогой пользователь! Огромная просьба, поблагодарите релизера, оцените раздачу и оставьте свои комментарий, если Вы скачали Сторож через торрент бесплатно! Внесите свою лепту в развитие PiratBit!
    Комментировать посты могут только пользователи прошедшие не сложную регистрацию
    Показать сообщения:    

    Сторож через торрент
    Скачать бесплатно Сторож
    Сторож скачать торрент
    Сторож смотреть онлайн
    Cкачать фильм Сторож бесплатно
    Сторож скачать торрент в хорошем качестве
    Сторож смотреть онлайн бесплатно в хорошем качестве


    Вы не можете начинать темы
    Вы не можете отвечать на сообщения
    Вы не можете редактировать свои сообщения
    Вы не можете удалять свои сообщения
    Вы не можете голосовать в опросах
    Вы не можете прикреплять файлы к сообщениям
    Вы можете скачивать файлы