новый адрес пиратбит piratbit
Мега распродажа FORZA HORIZON 4 ULTIMATE+ВСЕ DLC+ОНЛАЙН всего за 499р. 349 руб. (супер цена). Внимание количество ограничено!!!

iTunes

1+1

iTunes

мы

iTunes

1

iTunes

Чернобыль

iTunes

Ральф против интернета

Лицензия

ПШазам

Лицензия

Игра престолов

Лицензия

30
pack

ВАЖНО

!!Акция!!

Alien_RageХит недели

RePack

Resident Evil 21

ИГРА 18+

pack

RePack

Metro:Exodus

!!Акция!!

Alien_Rage

RePack

fifa19

RePack

Assassins Creed: Odyssey

RePack

NEED FOR SPEED™ PAYBACK

3 сезон

9 сезон

Бесстыжие 9 сезон

Все сериалы

все сериалы на PB.wtf

RePack

FAR CRY 5
Ребята, катастрофически не хватает 1900р. для оплаты серверов за Октябрь (всвязи с блокировками трафик упал в 3 раза), 1-2р., выручайте.
  

Птичий дозор / Manou the Swift / Birds of a Feather (Кристиан Хаас, Андреа Блок) [2019, Мультфильм, комедия, приключения, семейный, BDRip 1080p] DUB [iTunes] piratbit.pw

Птичий дозор через торрент piratbit.pw

Раздают: 16 [ 408 KB/s ]
Размер: 7.91 GB | Добавлен: 20 д. назад | Торрент скачан:142 раза
Скачать  

24-10-2019 08:07 Птичий дозор Скачать торрент  

Птичий дозор / Manou the Swift / Birds of a Feather«Держи клюв по ветру!»
Год выпуска: 2019
Страна: Германия
Жанр: Мультфильм, комедия, приключения, семейный
Продолжительность: 01:28:36
Перевод: Дублированный | iTunes
Субтитры: Английские

Режиссер: Кристиан Хаас, Андреа Блок

rating

В ролях: Кейт Уинслет, Уиллем Дефо, Роб Полсен, Джошуа Китон, Джули Натансон, Дэвид Шонесси, Ариф С. Кинчен, Фридрих Мюке, Кассандра Стин, Доминик Кун

Описание: Стриж Ману растет в семье чаек и изо всех сил пытается научиться плавать, ловить рыбу и летать так же, как и они. Но во время традиционного летнего состязания он понимает, что никогда не сможет стать чайкой. Раздосадованный Ману улетает из дома, где встречает новых друзей. Из-за этого портятся его отношения с родной стаей. Но тут в дело вмешивается случай. Ману, который вырос отважным как чайка и изобретательным как стриж, удается уберечь и чаек, и стрижей от надвигающейся опасности и стать героем в глазах и тех и других.

Качество: BDRip 1080p
Формат: MKV

Видео: MPEG-4 AVC, 1920x1080, 11.8 Mbit/s, 24 fps
Аудио#1: 48 kHz, AC3, 5.1, 384 Kbps | iTunes | RUS |
Аудио#2: 48 kHz, AC3, 5.1, 640 Kbps | Оригинал | ENG |
скриншот  скриншот  скриншот  скриншот  скриншот  

General
Unique ID : 59752336612719734936737663452831903527 (0x2CF3E1A59710368EAC3E6DB6A9356F27)
Complete name : D:Video111Manou.the.Swift.2019.BDRip.1080p.seleZen.mkv
Format : Matroska
Format version : Version 4
File size : 7.91 GiB
Duration : 1 h 28 min
Overall bit rate : 12.8 Mb/s
Movie name : Manou the Swift 2019 from селезень
Encoded date : UTC 2019-10-24 07:49:52
Writing application : mkvmerge v22.0.0 ('At The End Of The World') 64-bit
Writing library : libebml v1.3.5 + libmatroska v1.4.8

Video
ID : 1
Format : AVC
Format/Info : Advanced Video Codec
Format profile : High@L4.1
Format settings : CABAC / 4 Ref Frames
Format settings, CABAC : Yes
Format settings, Reference : 4 frames
Codec ID : V_MPEG4/ISO/AVC
Duration : 1 h 28 min
Bit rate : 11.8 Mb/s
Width : 1 920 pixels
Height : 1 080 pixels
Display aspect ratio : 16:9
Frame rate mode : Constant
Frame rate : 24.000 FPS
Color space : YUV
Chroma subsampling : 4:2:0
Bit depth : 8 bits
Scan type : Progressive
Bits/(Pixel*Frame) : 0.236
Stream size : 7.28 GiB (92%)
Title : Encoded by seleZen
Writing library : x264 core 148 r2705kMod 3f5ed56
Encoding settings : cabac=1 / ref=4 / deblock=1:-2:-2 / analyse=0x3:0x113 / me=umh / subme=11 / psy=1 / fade_compensate=0.00 / psy_rd=1.00:0.00 / mixed_ref=1 / me_range=32 / chroma_me=1 / trellis=2 / 8x8dct=1 / cqm=0 / deadzone=21,11 / fast_pskip=0 / chroma_qp_offset=-2 / threads=24 / lookahead_threads=6 / sliced_threads=0 / nr=0 / decimate=0 / interlaced=0 / bluray_compat=0 / constrained_intra=0 / fgo=0 / bframes=10 / b_pyramid=2 / b_adapt=2 / b_bias=0 / direct=3 / weightb=1 / open_gop=0 / weightp=2 / keyint=240 / keyint_min=24 / scenecut=40 / intra_refresh=0 / rc_lookahead=50 / rc=2pass / mbtree=0 / bitrate=11765 / ratetol=1.0 / qcomp=0.60 / qpmin=0 / qpmax=51 / qpstep=4 / cplxblur=20.0 / qblur=0.5 / vbv_maxrate=50000 / vbv_bufsize=62500 / nal_hrd=none / filler=0 / ip_ratio=1.40 / pb_ratio=1.30 / aq=3:0.80
Language : English
Default : Yes
Forced : No

Audio #1
ID : 2
Format : AC-3
Format/Info : Audio Coding 3
Commercial name : Dolby Digital
Codec ID : A_AC3
Duration : 1 h 28 min
Bit rate mode : Constant
Bit rate : 384 kb/s
Channel(s) : 6 channels
Channel layout : L R C LFE Ls Rs
Sampling rate : 48.0 kHz
Frame rate : 31.250 FPS (1536 SPF)
Bit depth : 16 bits
Compression mode : Lossy
Stream size : 243 MiB (3%)
Title : iTunes
Language : Russian
Service kind : Complete Main
Default : Yes
Forced : Yes

Audio #2
ID : 3
Format : AC-3
Format/Info : Audio Coding 3
Commercial name : Dolby Digital
Codec ID : A_AC3
Duration : 1 h 28 min
Bit rate mode : Constant
Bit rate : 640 kb/s
Channel(s) : 6 channels
Channel layout : L R C LFE Ls Rs
Sampling rate : 48.0 kHz
Frame rate : 31.250 FPS (1536 SPF)
Bit depth : 16 bits
Compression mode : Lossy
Stream size : 406 MiB (5%)
Title : Original
Language : English
Service kind : Complete Main
Default : No
Forced : No

Text
ID : 4
Format : UTF-8
Codec ID : S_TEXT/UTF8
Codec ID/Info : UTF-8 Plain Text
Duration : 1 h 27 min
Bit rate : 33 b/s
Count of elements : 866
Stream size : 21.5 KiB (0%)
Title : Original
Language : English
Default : No
Forced : No

Menu
00:00:00.000 : de:00:00:00.000
00:06:57.625 : de:00:06:57.625
00:14:10.375 : de:00:14:10.375
00:22:33.333 : de:00:22:33.333
00:31:38.833 : de:00:31:38.833
00:36:06.792 : de:00:36:06.792
00:43:52.833 : de:00:43:52.833
00:52:12.792 : de:00:52:12.792
00:59:52.917 : de:00:59:52.917
01:07:00.708 : de:01:07:00.708
01:14:10.208 : de:01:14:10.208
01:21:52.208 : de:01:21:52.208

piratbit.pw



Скачать Птичий дозор через торрент https://img15.lostpic.net/2019/10/24/63277853d08b7b0e41a04534487184ae.jpg Скачать фильм Птичий дозор через торрент бесплантно в хорошем качестве Описание: Стриж Ману растет в семье чаек и изо всех сил пытается научиться плавать, ловить рыбу и летать так же, как и они. Но во время ... 10 10 6
Торрент: Зарегистрирован [2019-10-24 08:07] · скачан: 142 раз
Статус: √ проверено
Размер: 7.91 GB
Как cкачать? Как скачать Птичий дозор через торрент | qTorrent

% Раздел Тема Автор DL S | L
Иностранные мультфильмы [ 745 MB ] Птичий дозор / Manou the Swift / Birds of a Feather [2019 Мультфильм BDRip-AVC от OlLanDGroup] Skandar2019 Скачать
7 | 0
Иностранные мультфильмы [ 1.42 GB ] Птичий дозор / Manou the Swift / Birds of a Feather [2019 мультфильм BDRip] - Twi7ter Скачать
61 | 4
Иностранные мультфильмы [ 1.56 GB ] Птичий дозор / Manou the Swift / Birds of a Feather [2019 Мультфильм BDRip-AVC] bober100 Скачать
2 | 0
Иностранные мультфильмы [ 1.42 GB ] Птичий дозор / Manou the Swift / Birds of a Feather [2019 Мультфильм BDRip] bober100 Скачать
3 | 0
Зарубежные Мультфильмы (BDRip 1080p, 720p, Blu-ray, BD-Remux) [ 16.15 GB ] Птичий дозор / Manou the Swift / Birds of a Feather [2019 Мультфильм BD Remux 1080p] bober100 Скачать
3 | 0


Последний раз редактировалось: bober100 (2019-10-24 16:38), всего редактировалось 1 раз


>> Регистрируемся здесь <<






Отзывы и комментарии о схеме читаем и пишем здесь: ---> Отзывы и комментарии о схеме

Новые благодарочки в телеграм довольных пользователей:
скриншот   скриншот   скриншот   скриншот   скриншот

24-10-2019 10:25 Птичий дозор Скачать торрент  

ну где ты ептить )) релизер ))piratbit.pw



    Дорогой пользователь! Огромная просьба, поблагодарите релизера, оцените раздачу и оставьте свои комментарий, если Вы скачали Птичий дозор через торрент бесплатно! Внесите свою лепту в развитие PiratBit!
    Комментировать посты могут только пользователи прошедшие не сложную регистрацию
    Показать сообщения:    

    Птичий дозор через торрент
    Скачать бесплатно Птичий дозор
    Птичий дозор скачать торрент
    Птичий дозор смотреть онлайн
    Cкачать фильм Птичий дозор бесплатно
    Птичий дозор скачать торрент в хорошем качестве
    Птичий дозор смотреть онлайн бесплатно в хорошем качестве


    Вы не можете начинать темы
    Вы не можете отвечать на сообщения
    Вы не можете редактировать свои сообщения
    Вы не можете удалять свои сообщения
    Вы не можете голосовать в опросах
    Вы не можете прикреплять файлы к сообщениям
    Вы можете скачивать файлы