новый адрес
Мега распродажа FORZA HORIZON 4 ULTIMATE+ВСЕ DLC+ОНЛАЙН всего за 499р. 349 руб. (супер цена). Внимание количество ограничено!!!

iTunes

1+1

iTunes

мы

iTunes

1

iTunes

Чернобыль

iTunes

Ральф против интернета

Лицензия

ПШазам

Лицензия

Игра престолов

Лицензия

30
pack

ВАЖНО

!!Акция!!

Alien_RageХит недели

RePack

Resident Evil 21

ИГРА 18+

pack

RePack

Metro:Exodus

!!Акция!!

Alien_Rage

RePack

fifa19

RePack

Assassins Creed: Odyssey

RePack

NEED FOR SPEED™ PAYBACK

3 сезон

9 сезон

Бесстыжие 9 сезон

Все сериалы

все сериалы на PB.wtf

RePack

FAR CRY 5
Ребята, катастрофически не хватает 1900р. для оплаты серверов за Октябрь (всвязи с блокировками трафик упал в 3 раза), 1-2р., выручайте.
  

Условный мент / Охта / Сезон: 1 / Серии: 1-19 из 24 (Андрей Коршунов) [2019, Детектив, приключения, WEB-DL 720p] piratbit.pw

Условный мент через торрент piratbit.pw

Раздают: 4 [ 185 KB/s ] Качают: 2 [ 0 KB/s ]
Размер: 10.09 GB | Добавлен: 1 д. 23 ч. назад | Торрент скачан:4 раза
Скачать  

22-10-2019 20:39 Условный мент Скачать торрент  

Условный мент / Охта
Год выпуска: 2019
Страна: Россия
Жанр: Детектив, приключения
Продолжительность: ~ 00:39:46
Субтитры: отсутствуют

Режиссер: Андрей Коршунов



В ролях: Денис Рожков, Анастасия Тюнина, Алексей Нилов, Егор Бакулин, Сергей Кошонин, Алексей Фокин, Кирилл Балобан, Ольга Богданова, Любовь Макеева, Александра Сыдорук, Сергей Фролов, Алексей Байдаков, Ольга Кирсанова-Миропольская, Евгений Карпов, Виталий Бисеров, Роман Притула, Олег Попов (II), Михаил Черняк, Евгений Антонов

Описание: Одновременно в Петербург приезжают бывший опер Дмитрий Рыжов, отсидевший в колонии за превышение полномочий, и капитан полиции Арина Гордеева. Рыжов устраивается работать в Жилкомсервис, чтобы зарабатывать деньги, ездить на своей аварийной машине по родному району и больше не иметь ничего общего с полицией. Гордеева становится участковым этого же района. В нём всем заправляет бизнесмен Вениамин Воронов – он же Веня Ворон. Под его «покровительством» практически все злачные точки и многие предприятия, которые за долю немалую прикрывает местный участковый капитан Тельцов...

Качество: WEB-DL 720p
Формат: MKV

Видео: MPEG-4 AVC, ~ 1844 Кбит/с, 1280x720
Аудио: AC3 Dolby Digital, 48.0 kHz, 2/0 (L,R) ch, 192 kbps
скриншот  скриншот  скриншот  скриншот  скриншот  

Общее
Уникальный идентификатор : 203794461664941910840285163545968149509 (0x995162B820E92A8191641E925E328405)
Полное имя : D:\Условный мент.2019 WEB-DL 720p. Files-x\01. Условный мент.2019 WEB-DL 720p. Files-x.mkv
Формат : Matroska
Версия формата : Version 2
Размер файла : 530 Мбайт
Продолжительность : 40 м. 9 с.
Общий поток : 1844 Кбит/сек
Дата кодирования : UTC 2019-10-15 10:14:39
Программа кодирования : mkvmerge v7.8.0 ('River Man') 32bit built on Apr 3 2015 12:11:22
Библиотека кодирования : libebml v1.3.1 + libmatroska v1.4.2

Видео
Идентификатор : 1
Формат : AVC
Формат/Информация : Advanced Video Codec
Профиль формата : Main@L3.1
Параметр CABAC формата : Да
Параметр RefFrames формата : 3 кадра
Идентификатор кодека : V_MPEG4/ISO/AVC
Продолжительность : 40 м. 9 с.
Битрейт : 1844 Кбит/сек
Ширина : 1280 пикселей
Высота : 720 пикселей
Соотношение сторон : 16:9
Режим частоты кадров : Постоянный
Частота кадров : 25,000 кадров/сек
Цветовое пространство : YUV
Субдискретизация насыщенности : 4:2:0
Битовая глубина : 8 бит
Тип развёртки : Прогрессивная
Бит/(Пиксели*Кадры) : 0.070
Размер потока : 464 Мбайт (88%)
Default : Да
Forced : Нет
Цветовой диапазон : Limited
Основные цвета : BT.709
Характеристики трансфера : BT.709
Коэффициенты матрицы : BT.709

Аудио
Идентификатор : 2
Формат : AC-3
Формат/Информация : Audio Coding 3
Расширение режима : CM (complete main)
Параметр Endianness формата : Big
Идентификатор кодека : A_AC3
Продолжительность : 40 м. 9 с.
Вид битрейта : Постоянный
Битрейт : 192 Кбит/сек
Каналы : 2 канала
Расположение каналов : Front: L R
Частота : 44,1 КГц
Частота кадров : 28,711 кадров/сек (1536 spf)
Метод сжатия : С потерями
Размер потока : 55,1 Мбайт (10%)
Default : Да
Forced : Нет

Внимание! Раздача ведётся путём добавления новых серий; при каждом добавлении создfётся новый торрент. Чтобы начать докачку новой серии, пользователям необходимо сделать следующее: (1) остановить скачивание, (2) удалить старый торрент у себя из клиента (старые серии удалять не надо), (3) скачать новый торрент и запустить его у себя в клиенте вместо старого, при этом указать клиенту путь в старую папку куда и должно происходить скачивание новых серий.

Ваш клиент при этом должен произвести хеширование (проверку) старой папки (если не производит сам - помогите ему сделать это), и будет докачивать только те серии которых у вас ещё нет. Старые серии при этом не удаляются, а продолжают раздаваться!

Eсли вы уже удалили старые серии, то предотвратить повторную закачку старых серий можно, отжав галочку в соответсвующих местах при запуске нового торрента.
piratbit.pw



Скачать Условный мент через торрент https://i90.fastpic.ru/big/2019/1014/28/b81fe807591b4b5862fbbf1adf1c2528.jpg Скачать фильм Условный мент через торрент бесплантно в хорошем качестве Описание: Одновременно в Петербург приезжают бывший опер Дмитрий Рыжов, отсидевший в колонии за превышение полномочий, и капитан полиции ... 8 10 3
Торрент: Зарегистрирован [2019-11-15 19:29] · скачан: 4 раз
Статус: √ проверено
Размер: 10.09 GB
Как cкачать? Как скачать Условный мент через торрент | qTorrent

% Раздел Тема Автор DL S | L
Наши сериалы [ 14.38 GB ] Условный мент / Охта / Сезон: 1 / Серии: 1-19 из 24 [2019 WEB-DL 1080p] bober100 Скачать
2 | 4
Наши сериалы [ 9.85 GB ] Условный мент / Охта / Сезон: 1 / Серии: 1-19 из 24 [2019 WEB-DLRip] bober100 Скачать
3 | 6
Наши сериалы [ 9.53 GB ] Условный мент / Охта / Сезон: 1 / Серии: 1-19 из 24 [2019 SATRip] bober100 Скачать
7 | 3


>> Регистрируемся здесь <<






Отзывы и комментарии о схеме читаем и пишем здесь: ---> Отзывы и комментарии о схеме

Новые благодарочки в телеграм довольных пользователей:
скриншот   скриншот   скриншот   скриншот   скриншот
    Дорогой пользователь! Огромная просьба, поблагодарите релизера, оцените раздачу и оставьте свои комментарий, если Вы скачали Условный мент через торрент бесплатно! Внесите свою лепту в развитие PiratBit!
    Комментировать посты могут только пользователи прошедшие не сложную регистрацию
    Показать сообщения:    

    Условный мент через торрент
    Скачать бесплатно Условный мент
    Условный мент скачать торрент
    Условный мент смотреть онлайн
    Cкачать фильм Условный мент бесплатно
    Условный мент скачать торрент в хорошем качестве
    Условный мент смотреть онлайн бесплатно в хорошем качестве


    Вы не можете начинать темы
    Вы не можете отвечать на сообщения
    Вы не можете редактировать свои сообщения
    Вы не можете удалять свои сообщения
    Вы не можете голосовать в опросах
    Вы не можете прикреплять файлы к сообщениям
    Вы можете скачивать файлы