новый адрес пиратбит piratbit
Мега распродажа FORZA HORIZON 4 ULTIMATE+ВСЕ DLC+ОНЛАЙН всего за 499р. 349 руб. (супер цена). Внимание количество ограничено!!!

iTunes

1+1

iTunes

мы

iTunes

1

iTunes

Чернобыль

iTunes

Ральф против интернета

Лицензия

ПШазам

Лицензия

Игра престолов

Лицензия

30
pack

ВАЖНО

!!Акция!!

Alien_RageХит недели

RePack

Resident Evil 21

ИГРА 18+

pack

RePack

Metro:Exodus

!!Акция!!

Alien_Rage

RePack

fifa19

RePack

Assassins Creed: Odyssey

RePack

NEED FOR SPEED™ PAYBACK

3 сезон

9 сезон

Бесстыжие 9 сезон

Все сериалы

все сериалы на PB.wtf

RePack

FAR CRY 5
Ребята, катастрофически не хватает 1900р. для оплаты серверов за Октябрь (всвязи с блокировками трафик упал в 3 раза), 1-2р., выручайте.
  

После полуночи / Past Midnight (Ян Элиасберг) [1991, триллер, драма, детектив, WEB-DL 1080p] DVO + MVO + AVO - KORSAR piratbit.pw

После полуночи через торрент piratbit.pw

Раздают: 1 [ 0 KB/s ]
Размер: 10.56 GB | Добавлен: 23 д. назад | Торрент скачан:21 раз
Скачать  

21-10-2019 16:14 После полуночи Скачать торрент  

После полуночи / Past Midnight
Год выпуска: 1991
Страна: США
Жанр: Триллер, драма, детектив
Продолжительность: 01:39:42
Перевод: Профессиональный многоголосый, профессиональный двухголосый, авторский одноголосый
Субтитры: Английские
Режиссёр: Ян Элиасберг
В ролях: Рутгер Хауэр, Наташа Ричардсон, Клэнси Браун, Гай Бойд, Эрни Лайвли, Том Райт, Кибиби Мони, Пол Джаматти, Дэна Эскелсон, Чарльз Босуэлл
Описание: Бен Джордан досрочно освобожден из тюрьмы, где он отбывал срок за зверское убийство беременной жены. Прямых улик злодеяния не было, а косвенных — хоть отбавляй. Реабилитацией Джордана и его трудоустройством будет заниматься сотрудница социальной службы Лора Мэтьюз. Общение с Беном наводит Лору на мысль, что он был осуждён из-за судебной ошибки. Въедливая Лора, привыкшая разбираться во всем до конца, решает провести собственное расследование давно закрытого дела. Это профессиональное любопытство может стоить ей жизни, если она доберётся до правды.

rating

Качество: WEB-DL 1080p
Формат: MKV
Видео: MPEG-4 AVC, 14100 Кбит/сек, 1920x1080, 23.976 Кадр/сек
Аудио 1: Russian: AC3, 2 ch, 192 Кбит/сек - DVO, НТВ+
Аудио 2: Russian: AC3, 2 ch, 192 Кбит/сек - MVO, СВ-Дубль
Аудио 3: Russian: AC3, 2 ch, 192 Кбит/сек - AVO, А. Гаврилов
Аудио 4: English: EAC3, 2 ch, 224 Кбит/сек - Оригинал

Релиз от:


Общее
Уникальный идентификатор : 236827950146880988242464812637602233463 (0xB22B677226EEEA968F46E90A456CBC77)
Полное имя : После.полуночи.1991.WEB-DL.1080p.mkv
Формат : Matroska
Версия формата : Version 2
Размер файла : 10,6 Гбайт
Продолжительность : 1 ч. 39 м.
Режим общего битрейта : Переменный
Общий поток : 15,2 Мбит/сек
Дата кодирования : UTC 2018-09-03 19:53:19
Программа кодирования : mkvmerge v5.8.0 ('No Sleep / Pillow') built on Sep 2 2012 15:37:04
Библиотека кодирования : libebml v1.2.3 + libmatroska v1.3.0

Видео
Идентификатор : 1
Формат : AVC
Формат/Информация : Advanced Video Codec
Профиль формата : High@L4
Настройки формата : CABAC / 4 Ref Frames
Параметр CABAC формата : Да
Параметр RefFrames формата : 4 кадра
Идентификатор кодека : V_MPEG4/ISO/AVC
Продолжительность : 1 ч. 39 м.
Вид битрейта : Переменный
Битрейт : 14,1 Мбит/сек
Максимальный битрейт : 15,0 Мбит/сек
Ширина : 1920 пикселей
Высота : 1080 пикселей
Соотношение сторон : 16:9
Режим частоты кадров : Постоянный
Частота кадров : 23,976 (24000/1001) кадра/сек
Цветовое пространство : YUV
Субдискретизация насыщенности : 4:2:0
Битовая глубина : 8 бит
Тип развёртки : Прогрессивная
Бит/(Пиксели*Кадры) : 0.283
Размер потока : 9,79 Гбайт (93%)
Библиотека кодирования : x264 core 148 r2623 d5b2374
Настройки программы : cabac=1 / ref=4 / deblock=1:-1:-1 / analyse=0x3:0x133 / me=umh / subme=9 / psy=1 / psy_rd=1.00:0.15 / mixed_ref=1 / me_range=24 / chroma_me=1 / trellis=2 / 8x8dct=1 / cqm=0 / deadzone=21,11 / fast_pskip=1 / chroma_qp_offset=-3 / threads=34 / lookahead_threads=5 / sliced_threads=0 / nr=150 / decimate=1 / interlaced=0 / bluray_compat=0 / constrained_intra=0 / bframes=8 / b_pyramid=2 / b_adapt=2 / b_bias=0 / direct=3 / weightb=1 / open_gop=0 / weightp=2 / keyint=120 / keyint_min=61 / scenecut=0 / intra_refresh=0 / rc_lookahead=120 / rc=crf / mbtree=1 / crf=18.0 / qcomp=0.60 / qpmin=0 / qpmax=69 / qpstep=4 / vbv_maxrate=15000 / vbv_bufsize=31250 / crf_max=0.0 / nal_hrd=vbr / filler=0 / ip_ratio=1.40 / aq=3:1.00
Язык : English
По умолчанию : Да
Принудительно : Нет
Цветовой диапазон : Limited
Основные цвета : BT.709
Характеристики трансфера : BT.709
Коэффициенты матрицы : BT.709

Аудио #1
Идентификатор : 2
Формат : AC-3
Формат/Информация : Audio Coding 3
Идентификатор кодека : A_AC3
Продолжительность : 1 ч. 39 м.
Вид битрейта : Постоянный
Битрейт : 192 Кбит/сек
Каналы : 2 канала
Расположение каналов : Front: L R
Частота : 48,0 КГц
Частота кадров : 31,250 кадров/сек (1536 SPF)
Битовая глубина : 16 бит
Метод сжатия : С потерями
Размер потока : 137 Мбайт (1%)
Заголовок : DVO | НТВ+
Язык : Russian
По умолчанию : Да
Принудительно : Нет

Аудио #2
Идентификатор : 3
Формат : AC-3
Формат/Информация : Audio Coding 3
Идентификатор кодека : A_AC3
Продолжительность : 1 ч. 39 м.
Вид битрейта : Постоянный
Битрейт : 192 Кбит/сек
Каналы : 2 канала
Расположение каналов : Front: L R
Частота : 48,0 КГц
Частота кадров : 31,250 кадров/сек (1536 SPF)
Битовая глубина : 16 бит
Метод сжатия : С потерями
Размер потока : 137 Мбайт (1%)
Заголовок : MVO | СВ-Дубль
Язык : Russian
По умолчанию : Нет
Принудительно : Нет

Аудио #3
Идентификатор : 4
Формат : AC-3
Формат/Информация : Audio Coding 3
Идентификатор кодека : A_AC3
Продолжительность : 1 ч. 39 м.
Вид битрейта : Постоянный
Битрейт : 192 Кбит/сек
Каналы : 2 канала
Расположение каналов : Front: L R
Частота : 48,0 КГц
Частота кадров : 31,250 кадров/сек (1536 SPF)
Битовая глубина : 16 бит
Метод сжатия : С потерями
Размер потока : 137 Мбайт (1%)
Заголовок : AVO | А. Гаврилов
Язык : Russian
По умолчанию : Нет
Принудительно : Нет

Аудио #4
Идентификатор : 5
Формат : E-AC-3
Формат/Информация : Enhanced Audio Coding 3
Идентификатор кодека : A_EAC3
Продолжительность : 1 ч. 39 м.
Вид битрейта : Постоянный
Битрейт : 224 Кбит/сек
Каналы : 2 канала
Расположение каналов : Front: L R
Частота : 48,0 КГц
Частота кадров : 187,500 кадров/сек (256 SPF)
Метод сжатия : С потерями
Размер потока : 160 Мбайт (1%)
Заголовок : Original
Язык : English
По умолчанию : Нет
Принудительно : Нет

Текст
Идентификатор : 6
Формат : UTF-8
Идентификатор кодека : S_TEXT/UTF8
Идентификатор кодека/Информация : UTF-8 Plain Text
Заголовок : SDH
Язык : English
По умолчанию : Нет
Принудительно : Нет
piratbit.pw



Скачать После полуночи через торрент https://i5.imageban.ru/out/2019/10/21/b83fe549938f63ba5a3d204c9d431078.png Скачать фильм После полуночи через торрент бесплантно в хорошем качестве Описание: Бен Джордан досрочно освобожден из тюрьмы, где он отбывал срок за зверское убийство беременной жены. Прямых улик злодеяния не ... 10 10 1
Info! Золотая раздача, скачанное не засчитывается.
Торрент: Зарегистрирован [2019-10-21 16:14] · скачан: 21 раз
Статус: √ проверено
Размер: 10.56 GB
Как cкачать? Как скачать После полуночи через торрент | qTorrent


>> Регистрируемся здесь <<






Отзывы и комментарии о схеме читаем и пишем здесь: ---> Отзывы и комментарии о схеме

Новые благодарочки в телеграм довольных пользователей:
скриншот   скриншот   скриншот   скриншот   скриншот
    Дорогой пользователь! Огромная просьба, поблагодарите релизера, оцените раздачу и оставьте свои комментарий, если Вы скачали После полуночи через торрент бесплатно! Внесите свою лепту в развитие PiratBit!
    Комментировать посты могут только пользователи прошедшие не сложную регистрацию
    Показать сообщения:    

    После полуночи через торрент
    Скачать бесплатно После полуночи
    После полуночи скачать торрент
    После полуночи смотреть онлайн
    Cкачать фильм После полуночи бесплатно
    После полуночи скачать торрент в хорошем качестве
    После полуночи смотреть онлайн бесплатно в хорошем качестве


    Вы не можете начинать темы
    Вы не можете отвечать на сообщения
    Вы не можете редактировать свои сообщения
    Вы не можете удалять свои сообщения
    Вы не можете голосовать в опросах
    Вы не можете прикреплять файлы к сообщениям
    Вы можете скачивать файлы