новый адрес
Ссылка на приватное зеркало всего за 1$. Внимание количество ограничено!!!

iTunes

1+1

iTunes

мы

WEB-DL

1

iTunes

Чернобыль

iTunes

Ральф против интернета

Лицензия

ПШазам

Лицензия

Оно 2

Лицензия

30
pack

Вам бонус

ВАЖНО

!!Акция!!

Alien_RageХит недели

RePack

Resident Evil 21

ИГРА 18+

pack

RePack

jed

!!Акция!!

Alien_Rage

RePack

fifa19

RePack

Assassins Creed: Odyssey

RePack

NEED FOR SPEED™ PAYBACK

3 сезон

9 сезон

Бесстыжие 9 сезон

Все сериалы

все сериалы на PB.wtf

RePack

FAR CRY 5
Ребята, катастрофически не хватает 1900р. для оплаты серверов за Октябрь (всвязи с блокировками трафик упал в 3 раза), 1-2р., выручайте.
  

Хранители / Watchmen / Сезон: 1 / Серии: 1-8 из 9 (Стеф Грин, Николь Кэссел, Андрий Парекх) [2019, фантастика, боевик, драма, детектив, WEB-DLRip] MVO [AMEDIA / Kravec] piratbit.pw

Хранители через торрент piratbit.pw

Раздают: 3 [ 583 KB/s ] Качают: 2 [ 0 KB/s ]
Размер: 6.39 GB | Добавлен: 1 д. 6 ч. назад | Торрент скачан:5 раз
Скачать  

21-10-2019 07:49 Хранители Скачать торрент  

Хранители / Watchmen
Год выпуска: 2019
Страна: США
Жанр: фантастика, боевик, драма, детектив
Продолжительность: ~ 01:00:00
Перевод: Профессиональный (многоголосый закадровый) | AMEDIA / Kravec
Субтитры: отсутствуют

Режиссер: Стеф Грин, Николь Кэссел, Андрий Парекх

rating


В ролях: Реджина Кинг, Дон Джонсон, Тим Блейк Нельсон, Луис Госсет мл., Эндрю Ховард, Джереми Айронс, Яхья Абдул-Матин II, Фрэнсис Фишер, Джейкоб Минг-Трент, Том Мисон и другие.

Описание: В 2019 году Штатами уже 27 лет правит Роберт Редфорд, интернет был убит ещё в зародыше, а полиция скрывает свои лица за жёлтыми масками. Тем временем по всей Америке даёт о себе знать радикальный правый культ Роршаха, призывающий к войне против полиции. Всё это время продолжают действовать новые борцы с преступностью, на горизонте маячит очередной конец света, а Доктор Манхэттен устал от одиночества на Марсе и решил заглянуть на Землю.

Качество: WEB-DLRip
Формат: AVI

Видео: 720x400, XviD ~1700 kbps avg, 0.22 bit/pixel
Аудио: 48 kHz, AC3, 2/0 (L,R) ch, ~192 kbps avg
скриншот  скриншот  скриншот  скриншот  скриншот  

Общее
Полное имя : D:\Watchmen.2019. WEB-DLRip. Amedia\01. Watchmen.2019. WEB-DLRip. Amedia.avi
Формат : AVI
Формат/Информация : Audio Video Interleave
Размер файла : 853 Мбайт
Продолжительность : 1 ч. 2 м.
Общий поток : 1901 Кбит/сек
Программа кодирования : VirtualDubMod 1.5.10.3 | www.virtualdub-fr.org || (build 2550/release)
Библиотека кодирования : VirtualDubMod build 2550/release

Видео
Идентификатор : 0
Формат : MPEG-4 Visual
Профиль формата : Advanced Simple@L5
Параметр BVOP формата : 2
Параметр QPel формата : Нет
Параметр GMC формата : Без точки перехода
Параметр матрицы формата : Выборочная
Идентификатор кодека : XVID
Идентификатор кодека/Подсказка : XviD
Продолжительность : 1 ч. 2 м.
Битрейт : 1700 Кбит/сек
Ширина : 720 пикселей
Высота : 400 пикселей
Соотношение сторон : 16:9
Частота кадров : 23,976 (23976/1000) кадра/сек
Цветовое пространство : YUV
Субдискретизация насыщенности : 4:2:0
Битовая глубина : 8 бит
Тип развёртки : Прогрессивная
Метод сжатия : С потерями
Бит/(Пиксели*Кадры) : 0.246
Размер потока : 763 Мбайт (89%)
Библиотека кодирования : XviD 73

Аудио
Идентификатор : 1
Формат : AC-3
Формат/Информация : Audio Coding 3
Расширение режима : CM (complete main)
Параметр Endianness формата : Big
Идентификатор кодека : 2000
Продолжительность : 1 ч. 2 м.
Вид битрейта : Постоянный
Битрейт : 192 Кбит/сек
Каналы : 2 канала
Расположение каналов : Front: L R
Частота : 48,0 КГц
Частота кадров : 31,250 кадров/сек (1536 spf)
Метод сжатия : С потерями
Размер потока : 86,2 Мбайт (10%)
Выравнивание : Разделение по промежуткам
Продолжительность промежутка : 42 мс. (1,00 видеокадр)
Время предзагрузки промежутка : 500 мс.

Внимание! Раздача ведётся путём добавления новых серий; при каждом добавлении создаётся новый торрент. Чтобы начать докачку новой серии, пользователям необходимо сделать следующее:
(1) остановить скачивание,
(2) удалить старый торрент у себя из клиента (старые серии удалять не надо),
(3) скачать новый торрент и запустить его у себя в клиенте вместо старого, при этом указать клиенту путь в старую папку куда и должно происходить скачивание новых серий.

Ваш клиент при этом должен произвести хеширование (проверку) старой папки (если не производит сам - помогите ему сделать это), и будет докачивать только те серии которых у вас ещё нет. Старые серии при этом не удаляются, а продолжают раздаваться!

Eсли вы уже удалили старые серии, то предотвратить повторную закачку старых серий можно, отжав галочку в соответсвующих местах при запуске нового торрента. По возможности, желательно не удалять старые серии как можно дольше чтобы релизёр не столько продолжал раздавать старые серии, а смог сконцентрироваться на новых.
piratbit.pw



Скачать Хранители через торрент https://c.radikal.ru/c11/1910/42/dd94be613429.jpg Скачать фильм Хранители через торрент бесплантно в хорошем качестве Описание: В 2019 году Штатами уже 27 лет правит Роберт Редфорд, интернет был убит ещё в зародыше, а полиция скрывает свои лица за жёлтыми ... 8.7 10 6
Торрент: Зарегистрирован [2019-12-09 16:10] · скачан: 5 раз
Статус: √ проверено
Размер: 6.39 GB
Как cкачать? Как скачать Хранители через торрент | qTorrent

% Раздел Тема Автор DL S | L
Фильмы с украинским озвучиванием [ 8.22 GB ] Хранители / Watchmen / Сезон: 1 / Серии: 1-8 из 9 [2019 WEBRip-AVC] [Ukr MVO] killermax2013 Скачать
1 | 1
T Зарубежные сериалы [ 24.61 GB ] Хранители / Watchmen / Сезон: 1 / Серии: 1-8 из 9 [2019 WEBRip 1080p] MVO [Octopus] bober100 Скачать
1 | 3
T Зарубежные сериалы [ 15.87 GB ] Хранители / Watchmen / Сезон: 1 / Серии: 1-8 из 9 [2019 WEBRip 720p] MVO [Octopus] bober100 Скачать
2 | 2
T Зарубежные сериалы [ 6.32 GB ] Хранители / Watchmen / Сезон: 1 / Серии: 1-8 из 9 [2019 WEBRip] MVO [Octopus] bober100 Скачать
3 | 0

28-11-2019 20:33  

Отключить всю рекламу на сайте

    Дорогой пользователь! Огромная просьба, поблагодарите релизера, оцените раздачу и оставьте свои комментарий, если Вы скачали Хранители через торрент бесплатно! Внесите свою лепту в развитие PiratBit!
    Комментировать посты могут только пользователи прошедшие не сложную регистрацию
    Показать сообщения:    

    Хранители через торрент
    Скачать бесплатно Хранители
    Хранители скачать торрент
    Хранители смотреть онлайн
    Cкачать фильм Хранители бесплатно
    Хранители скачать торрент в хорошем качестве
    Хранители смотреть онлайн бесплатно в хорошем качестве


    Вы не можете начинать темы
    Вы не можете отвечать на сообщения
    Вы не можете редактировать свои сообщения
    Вы не можете удалять свои сообщения
    Вы не можете голосовать в опросах
    Вы не можете прикреплять файлы к сообщениям
    Вы можете скачивать файлы