1 сезон

1 сезон

iTunes

1

КиноПоиск HD

Кинопоиск HD

iTunes

13

1 сезон

RePack

30

Новинка

ВАЖНО

ИГРА 18+

pack

RePack

MK11
pack

Легкие деньги

RePack

jed

RePack

fifa19

RePack

RDR2

RePack

NEED FOR SPEED™ PAYBACK

4 сезон

9 сезон

Бесстыжие 9 сезон

Все сериалы

все сериалы на PB.wtf

RePack

FAR CRY 5
  
Magnet ссылка

Ад / El infierno (Луис Эстрада) [2010, боевик, драма, комедия, криминал, BDRip (AVC) by msltel] AVO, VO piratbit.pw

Ад через торрент piratbit.pw

Размер: 3.76 GB | Добавлен: 1 год 6 мес. назад | Торрент скачан:10 раз
Скачать  

21-10-2019 06:52 Ад Скачать торрент  

Название: Ад
Оригинальное название: El infierno
Год выпуска: 2010
Страна: Мексика
Жанр: боевик, драма, комедия, криминал
Продолжительность: 02:28:48
Перевод: авторский, закадровый одноголосый

Режиссер: Луис Эстрада
В ролях: Дамиан Альказар, Хоакин Косио, Эрнесто Гомес Крус, Мария Рохо, Элизабет Сервантес, Даниэль Хименес Качо, Хорхе Сарате, Сальвадор Санчес, Анджелина Пелаез, Кристиан Феррер

О фильме: Бенхамин «Бенни» Гарсия, проживший 20 лет в США, депортирован в свою родную деревню на севере Мексики. Возвратившись в дом, он видит картину опустошения. Все, от священника до мэра города, связаны с наркоторговлей. Ему предлагают заняться тем же. Сначала он сопротивляется, но, не найдя нормально оплачиваемого дела, соглашается на «классную работу». Деньги, веселье, девочки... Но вскоре Бенни понимает, что криминальная жизнь - это совсем не веселье...



Качество: BDRip (AVC)
Формат: MKV
Видео: MPEG-4 AVC, 2531 Кбит/с, 1024x426, 23.976 кадр/с
Аудио 1: русский, AC3, 448 kbps, 6 ch, 48 kHz [авторский, Юрий Немахов]
Аудио 2: русский, AC3, 192 kbps, 2 ch, 48 kHz [закадровый одноголосый, Gopstarrr с ненормативной лексикой]
Аудио 3: испанский, AC3, 448 kbps, 6 ch, 48 kHz [оригинал]
Субтитры: английские
Главы/чаптеры
Общее
Уникальный идентификатор : 172023375292981253329221136843315523491 (0x816A7F38D83F99859FED4B150936AFA3)
Полное имя : D:\Video\Ад.2010.BDRip (AVC) by msltel.mkv
Формат : Matroska
Версия формата : Version 4
Размер файла : 3,76 Гбайт
Продолжительность : 2 ч. 28 м.
Общий поток : 3621 Кбит/сек
Название фильма : Rip by msltel
Дата кодирования : UTC 2019-10-21 02:28:32
Программа кодирования : mkvmerge v8.2.0 ('World of Adventure') 64bit
Библиотека кодирования : libebml v1.3.1 + libmatroska v1.4.2

Видео
Идентификатор : 1
Формат : AVC
Формат/Информация : Advanced Video Codec
Профиль формата : High@L4.1
Настройки формата : CABAC / 9 Ref Frames
Параметр CABAC формата : Да
Параметр RefFrames формата : 9 кадров
Идентификатор кодека : V_MPEG4/ISO/AVC
Продолжительность : 2 ч. 28 м.
Битрейт : 2531 Кбит/сек
Ширина : 1024 пикселя
Высота : 426 пикселей
Соотношение сторон : 2,40:1
Режим частоты кадров : Постоянный
Частота кадров : 23,976 (24000/1001) кадра/сек
Цветовое пространство : YUV
Субдискретизация насыщенности : 4:2:0
Битовая глубина : 8 бит
Тип развёртки : Прогрессивная
Бит/(Пиксели*Кадры) : 0.242
Размер потока : 2,63 Гбайт (70%)
Библиотека кодирования : x264 core 157 r2935 545de2f
Настройки программы : cabac=1 / ref=9 / deblock=1:-2:-2 / analyse=0x3:0x113 / me=umh / subme=11 / psy=1 / psy_rd=1.00:0.15 / mixed_ref=1 / me_range=32 / chroma_me=1 / trellis=2 / 8x8dct=1 / cqm=0 / deadzone=21,11 / fast_pskip=0 / chroma_qp_offset=-3 / threads=6 / lookahead_threads=1 / sliced_threads=0 / nr=0 / decimate=1 / interlaced=0 / bluray_compat=0 / constrained_intra=0 / bframes=12 / b_pyramid=2 / b_adapt=2 / b_bias=0 / direct=1 / weightb=1 / open_gop=0 / weightp=2 / keyint=230 / keyint_min=23 / scenecut=40 / intra_refresh=0 / rc_lookahead=40 / rc=crf / mbtree=1 / crf=17.0 / qcomp=0.60 / qpmin=0 / qpmax=69 / qpstep=4 / vbv_maxrate=50000 / vbv_bufsize=62500 / crf_max=0.0 / nal_hrd=none / filler=0 / ip_ratio=1.40 / aq=1:1.00
Язык : Spanish
Default : Да
Forced : Нет

Аудио #1
Идентификатор : 2
Формат : AC-3
Формат/Информация : Audio Coding 3
Коммерческое название : Dolby Digital
Идентификатор кодека : A_AC3
Продолжительность : 2 ч. 28 м.
Вид битрейта : Постоянный
Битрейт : 448 Кбит/сек
Каналы : 6 каналов
ChannelLayout : L R C LFE Ls Rs
Частота : 48,0 КГц
Частота кадров : 31,250 кадров/сек (1536 SPF)
Метод сжатия : С потерями
Размер потока : 477 Мбайт (12%)
Заголовок : Юрий Немахов
Язык : Russian
ServiceKind/String : Complete Main
Default : Да
Forced : Нет

Аудио #2
Идентификатор : 3
Формат : AC-3
Формат/Информация : Audio Coding 3
Коммерческое название : Dolby Digital
Идентификатор кодека : A_AC3
Продолжительность : 2 ч. 28 м.
Вид битрейта : Постоянный
Битрейт : 192 Кбит/сек
Каналы : 2 канала
ChannelLayout : L R
Частота : 48,0 КГц
Частота кадров : 31,250 кадров/сек (1536 SPF)
Метод сжатия : С потерями
Размер потока : 204 Мбайт (5%)
Заголовок : Gopstarrr с ненормативной лексикой
Язык : Russian
ServiceKind/String : Complete Main
Default : Нет
Forced : Нет

Аудио #3
Идентификатор : 4
Формат : AC-3
Формат/Информация : Audio Coding 3
Коммерческое название : Dolby Digital
Идентификатор кодека : A_AC3
Продолжительность : 2 ч. 28 м.
Вид битрейта : Постоянный
Битрейт : 448 Кбит/сек
Каналы : 6 каналов
ChannelLayout : L R C LFE Ls Rs
Частота : 48,0 КГц
Частота кадров : 31,250 кадров/сек (1536 SPF)
Метод сжатия : С потерями
Размер потока : 477 Мбайт (12%)
Заголовок : original
Язык : Spanish
ServiceKind/String : Complete Main
Default : Нет
Forced : Нет

Текст
Идентификатор : 5
Формат : UTF-8
Идентификатор кодека : S_TEXT/UTF8
Идентификатор кодека/Информация : UTF-8 Plain Text
Продолжительность : 2 ч. 27 м.
Битрейт : 63 бит/сек
ElementCount : 2106
Размер потока : 68,9 Кбайт (0%)
Заголовок : английские
Язык : English
Default : Нет
Forced : Нет

Меню
00:00:00.000 : :Chapter 1
00:04:37.027 : :Chapter 2
00:07:10.972 : :Chapter 3
00:13:37.025 : :Chapter 4
00:20:56.046 : :Chapter 5
00:28:40.385 : :Chapter 6
00:33:29.966 : :Chapter 7
00:36:33.983 : :Chapter 8
00:43:41.994 : :Chapter 9
00:50:49.421 : :Chapter 10
00:57:40.957 : :Chapter 11
01:01:48.997 : :Chapter 12
01:03:20.964 : :Chapter 13
01:06:53.968 : :Chapter 14
01:09:32.919 : :Chapter 15
01:15:48.961 : :Chapter 16
01:18:28.746 : :Chapter 17
01:21:41.814 : :Chapter 18
01:23:53.946 : :Chapter 19
01:31:47.961 : :Chapter 20
01:36:11.515 : :Chapter 21
01:40:06.334 : :Chapter 22
01:46:42.896 : :Chapter 23
01:50:05.933 : :Chapter 24
01:59:24.866 : :Chapter 25
02:04:52.944 : :Chapter 26
02:08:02.842 : :Chapter 27
02:13:46.936 : :Chapter 28
02:18:21.877 : :Chapter 29
02:22:33.920 : :Chapter 30
02:23:55.919 : :Chapter 31
piratbit.pw



Скачать Ад через торрент https://d.radikal.ru/d21/1910/d4/9de529a4f3d6.jpg Скачать фильм Ад через торрент бесплантно в хорошем качестве О фильме: Бенхамин «Бенни» Гарсия, проживший 20 лет в США, депортирован в свою родную деревню на севере Мексики. Возвратившись в дом, он ... 5 10 1
Торрент: Зарегистрирован [2019-10-21 06:52] · скачан: 10 раз
Статус: √ проверено
Размер: 3.76 GB
Как cкачать? Как скачать Ад через торрент | UTorrent

% Раздел Тема Автор DL S | L
Фильмы с авторской озвучкой [ 16.19 GB ] Ад / El infierno [2010 BDRip 1080p by msltel] AVO VO msltel Скачать
1 | 0
Фильмы с авторской озвучкой [ 5.96 GB ] Ад / El infierno [2010 BDRip 720p by msltel] AVO VO msltel Скачать
1 | 0


Последний раз редактировалось: msltel (2019-10-22 05:06), всего редактировалось 1 раз

28-11-2019 20:33  

Отключить всю рекламу на сайте

21-10-2019 09:04 Ад Скачать торрент  

Топик был перенесен из форума Фильмы 2010 в форум Фильмы с авторской озвучкой


bober100piratbit.pw



    Дорогой пользователь! Огромная просьба, поблагодарите релизера, оцените раздачу и оставьте свои комментарий, если Вы скачали Ад через торрент бесплатно! Внесите свою лепту в развитие PiratBit!
    Комментировать посты могут только пользователи прошедшие не сложную регистрацию
    Показать сообщения:    

    Ад через торрент
    Скачать бесплатно Ад
    Ад скачать торрент
    Ад смотреть онлайн
    Cкачать фильм Ад бесплатно
    Ад скачать торрент в хорошем качестве
    Ад смотреть онлайн бесплатно в хорошем качестве


    Вы не можете начинать темы
    Вы не можете отвечать на сообщения
    Вы не можете редактировать свои сообщения
    Вы не можете удалять свои сообщения
    Вы не можете голосовать в опросах
    Вы не можете прикреплять файлы к сообщениям
    Вы можете скачивать файлы