Ссылка на приватное зеркало нашего сайта всего за 1$. Внимание количество ограничено!!!

2 сезон

iTunes

iTunes

1

iTunes

iTunes

iTunes

WEBRip

iTunes

30
pack

Новость дня

ВАЖНО

!!Акция!!

Alien_RageХит недели

RePack

Horizon Zero Dawn

ИГРА 18+

pack

RePack

jed

!!Акция!!

Alien_Rage

RePack

fifa19

RePack

Assassins Creed: Odyssey

RePack

NEED FOR SPEED™ PAYBACK

4 сезон

9 сезон

Бесстыжие 9 сезон

Все сериалы

все сериалы на PB.wtf

RePack

FAR CRY 5
  

Ничей (Евгений Татаров) [2019, Драма, WEB-DL 1080p] [iTunes] piratbit.pw

Ничей через торрент piratbit.pw

Размер: 2.68 GB | Добавлен: 11 мес. назад | Торрент скачан:61 раз
Скачать  

21-10-2019 06:51 Ничей Скачать торрент  

Ничей
Год выпуска: 2019
Страна: Россия
Жанр: Драма
Продолжительность: 01:16:43
Перевод: Не требуется | iTunes
Субтитры: отсутствуют

Режиссер: Евгений Татаров



В ролях: Надежда Маркина, Олег Чугунов, Владимир Меньшов, Дарья Юргенс, Галина Бокашевская, Владимир Ямненко, Хельга Филиппова, Сергей Рост, Александр Тютрюмов, Андрей Шимко

Описание: После смерти матери двенадцатилетнего Колю отправляют в детский дом. Оттуда его забирает Валентина. Эта одинокая пожилая женщина — его родная тётя, с которой он прежде не был знаком. Коля ждёт, что старший брат после освобождения из тюрьмы приедет за ним, и они вместе вернутся домой.

Качество: WEB-DL 1080p
Формат: MKV

Видео: 1920x806 (2,40:1), 25 fps, MPEG-4 AVC ~ 4516 Кbps avg, 0.117 bit/pixel
Аудио: AC3, 48 kHz, 6 ch, ~384.00 kbps avg | русский | iTunes
скриншот  скриншот  скриншот  скриншот  скриншот  

Общее
Уникальный идентификатор : 221572612106248626018139112098907570375 (0xA6B15535BBAD224CA76A1EC8B7A040C7)
Полное имя : NiCHEJ_2019_WEB-DL_1080p-BLUEBIRD.mkv
Формат : Matroska
Версия формата : Version 4 / Version 2
Размер файла : 2,68 Гбайт
Продолжительность : 1 ч. 16 м.
Общий поток : 4999 Кбит/сек
Название фильма : NiCHEJ_2019_WEB-DL_1080p-BLUEBIRD
Дата кодирования : UTC 2019-10-20 18:15:40
Программа кодирования : mkvmerge v6.9.1 ('Blue Panther') 32bit built on Apr 18 2014 18:15:44
Библиотека кодирования : libebml v1.3.0 + libmatroska v1.4.1
Обложка : Yes
Attachments : cover.png

Видео
Идентификатор : 1
Формат : AVC
Формат/Информация : Advanced Video Codec
Профиль формата : High@L4
Настройки формата : CABAC / 5 Ref Frames
Параметр CABAC формата : Да
Параметр RefFrames формата : 5 кадров
Идентификатор кодека : V_MPEG4/ISO/AVC
Продолжительность : 1 ч. 16 м.
Битрейт : 4516 Кбит/сек
Ширина : 1920 пикселей
Высота : 806 пикселей
Соотношение сторон : 2,40:1
Режим частоты кадров : Постоянный
Частота кадров : 25,000 кадров/сек
Цветовое пространство : YUV
Субдискретизация насыщенности : 4:2:0
Битовая глубина : 8 бит
Тип развёртки : Прогрессивная
Бит/(Пиксели*Кадры) : 0.117
Размер потока : 2,42 Гбайт (90%)
Заголовок : NiCHEJ_2019_WEB-DL_1080p-BLUEBIRD
Язык : English
Default : Да
Forced : Нет
Цветовой диапазон : Limited
Основные цвета : BT.709
Характеристики трансфера : BT.709
Коэффициенты матрицы : BT.709

Аудио
Идентификатор : 2
Формат : AC-3
Формат/Информация : Audio Coding 3
Идентификатор кодека : A_AC3
Продолжительность : 1 ч. 16 м.
Вид битрейта : Постоянный
Битрейт : 384 Кбит/сек
Каналы : 6 каналов
Расположение каналов : Front: L C R, Side: L R, LFE
Частота : 48,0 КГц
Частота кадров : 31,250 кадров/сек (1536 SPF)
Битовая глубина : 16 бит
Метод сжатия : С потерями
Размер потока : 211 Мбайт (8%)
Заголовок : [ORIGINAL] DD 5.1 @ 384 kbps (iTunes)
Язык : Russian
Default : Да
Forced : Нет

Меню
00:00:00.000 : en:Глава 1
00:08:07.920 : en:Глава 2
00:16:33.040 : en:Глава 3
00:25:03.920 : en:Глава 4
00:34:38.200 : en:Глава 5
00:42:49.880 : en:Глава 6
00:50:57.320 : en:Глава 7
01:00:24.640 : en:Глава 8
01:08:35.920 : en:Глава 9

piratbit.pw



Скачать Ничей через торрент https://i87.fastpic.ru/big/2019/1020/10/50e53cad90dc0e6fc8d94c7bd61d7a10.jpg Скачать фильм Ничей через торрент бесплантно в хорошем качестве Описание: После смерти матери двенадцатилетнего Колю отправляют в детский дом. Оттуда его забирает Валентина. Эта одинокая пожилая женщина ... 10 10 4
Торрент: Зарегистрирован [2019-10-21 06:51] · скачан: 61 раз
Статус: √ проверено
Размер: 2.68 GB
Как cкачать? Как скачать Ничей через торрент | qTorrent

% Раздел Тема Автор DL S | L
Фильмы с украинским озвучиванием [ 1.46 GB ] Секс и ничего личного [2018 WEB-DLRip] [Украинский] Twi7ter Скачать
1 | 0
Фильмы 2018 [DVDrip, WEB-DLRip, HDrip] (DUB, MVO) [ 745 MB ] 100 вещей и ничего лишнего / 100 Dinge [2018 WEB-DLRip] bober100 Скачать
1 | 0
Фильмы 2018 [DVDrip, WEB-DLRip, HDrip] (DUB, MVO) [ 2.3 GB ] 100 вещей и ничего лишнего / 100 Dinge [2018 WEB-DLRip-AVC] DUB bober100 Скачать
1 | 0
Фильмы (HD 720p, 1080p) (48-60 fps) [ 19.98 GB ] Ничего хорошего в отеле «Эль рояль» / Bad Times at the El Royale [2018 BDRip 1080p 60 fps] sheker187 Скачать
1 | 0
Фильмы 2018 [DVDrip, WEB-DLRip, HDrip] (DUB, MVO) [ 1.46 GB ] Ничего хорошего в отеле «Эль рояль» / Bad Times at the El Royale [2018 BDRip] - [] Twi7ter Скачать
3 | 0
Фильмы [HD 720p, 1080p] (Хороший звук DUB, MVO) [ 15.35 GB ] Ничего хорошего в отеле «Эль рояль» / Bad Times at the El Royale [2018 BDRip 1080p] DUB [] + MVO [HDRezka Studio] + AVO [Яроцкий] sheker187 Скачать
2 | 0
Ultra HD (UHD: 2K, 4K, 8K) — видео сверхвысокой чёткости [ 56.4 GB ] Ничего хорошего в отеле «Эль рояль» / Bad Times at the El Royale [2018 UHD BDRemux 2160p] DUB + MVO + AVO sheker187 Скачать
1 | 0

28-11-2019 20:33  

Отключить всю рекламу на сайте

    Дорогой пользователь! Огромная просьба, поблагодарите релизера, оцените раздачу и оставьте свои комментарий, если Вы скачали Ничей через торрент бесплатно! Внесите свою лепту в развитие PiratBit!
    Комментировать посты могут только пользователи прошедшие не сложную регистрацию
    Показать сообщения:    

    Ничей через торрент
    Скачать бесплатно Ничей
    Ничей скачать торрент
    Ничей смотреть онлайн
    Cкачать фильм Ничей бесплатно
    Ничей скачать торрент в хорошем качестве
    Ничей смотреть онлайн бесплатно в хорошем качестве


    Вы не можете начинать темы
    Вы не можете отвечать на сообщения
    Вы не можете редактировать свои сообщения
    Вы не можете удалять свои сообщения
    Вы не можете голосовать в опросах
    Вы не можете прикреплять файлы к сообщениям
    Вы можете скачивать файлы