новый адрес пиратбит piratbit
Мега распродажа FORZA HORIZON 4 ULTIMATE+ВСЕ DLC+ОНЛАЙН всего за 499р. 349 руб. (супер цена). Внимание количество ограничено!!!

iTunes

1+1

iTunes

мы

iTunes

1

iTunes

Чернобыль

iTunes

Ральф против интернета

Лицензия

ПШазам

Лицензия

Игра престолов

Лицензия

30
pack

ВАЖНО

!!Акция!!

Alien_RageХит недели

RePack

Resident Evil 21

ИГРА 18+

pack

RePack

Metro:Exodus

!!Акция!!

Alien_Rage

RePack

fifa19

RePack

Assassins Creed: Odyssey

RePack

NEED FOR SPEED™ PAYBACK

3 сезон

9 сезон

Бесстыжие 9 сезон

Все сериалы

все сериалы на PB.wtf

RePack

FAR CRY 5
Ребята, катастрофически не хватает 1900р. для оплаты серверов за Октябрь (всвязи с блокировками трафик упал в 3 раза), 1-2р., выручайте.
  

Завтрак на обочине / When Strangers Appear (Скотт Рейнольдс) [2001, триллер, боевик, детектив, WEB-DL 1080p] MVO - KORSAR piratbit.pw

Завтрак на обочине через торрент piratbit.pw

Размер: 9.37 GB | Добавлен: 22 д. назад | Торрент скачан:35 раз
Скачать  

20-10-2019 21:30 Завтрак на обочине Скачать торрент  

Завтрак на обочине / When Strangers Appear
Год выпуска: 2001
Страна: Австралия , США
Жанр: Триллер, боевик, детектив
Продолжительность: 01:40:24
Перевод: Профессиональный многоголосый
Субтитры: Английские
Режиссёр: Скотт Рейнольдс
В ролях: Рада Митчелл, Джош Лукас, Бэрри Уотсон, Кевин Андерсон, Джонатан Блик, Эрин Уилсон, Майкл Лоу, Стивен Рэй, Дра МакКэй, Серафин Рочери
Описание: Один раненый. Группа таинственных незнакомцев. У каждого своя история. Кому верить? Когда перепуганный, истекающий кровью Мэтт входит в затерянное кафе, которым владеет Бет, там закручивается серия загадочных событий. Трое внешне безвредных незнакомцев прибывают в кафе, но, как утверждает Мэтт, они ищут его, чтобы убить. Бет решает спасти Мэтта, но его последующее исчезновение и дальнейшее общение с гостями только еще больше запутывают ситуацию, и Бет все глубже и глубже погружается в пучину их опасных игр.

rating

Качество: WEB-DL 1080p
Формат: MKV
Видео: MPEG-4 AVC, 12300 Кбит/сек, 1920x816, 23.976 Кадр/сек
Аудио 1: Russian: AC3, 2 ch, 192 Кбит/сек - MVO
Аудио 2: English: EAC3, 6 ch, 640 Кбит/сек - Оригинал

Релиз от:


Общее
Уникальный идентификатор : 211303268686031194895868205113761473824 (0x9EF7877CFD384667A8DB4A3990CA2520)
Полное имя : Завтрак.на.обочине.2001.WEB-DL.1080p.mkv
Формат : Matroska
Версия формата : Version 2
Размер файла : 9,37 Гбайт
Продолжительность : 1 ч. 40 м.
Общий поток : 13,4 Мбит/сек
Дата кодирования : UTC 2018-12-27 06:49:54
Программа кодирования : mkvmerge v5.8.0 ('No Sleep / Pillow') built on Sep 2 2012 15:37:04
Библиотека кодирования : libebml v1.2.3 + libmatroska v1.3.0

Видео
Идентификатор : 1
Формат : AVC
Формат/Информация : Advanced Video Codec
Профиль формата : High@L4
Настройки формата : CABAC / 4 Ref Frames
Параметр CABAC формата : Да
Параметр RefFrames формата : 4 кадра
Идентификатор кодека : V_MPEG4/ISO/AVC
Продолжительность : 1 ч. 40 м.
Битрейт : 12,3 Мбит/сек
Ширина : 1920 пикселей
Высота : 816 пикселей
Соотношение сторон : 2,35:1
Соотношение сторон в оригинале : 2,35:1
Режим частоты кадров : Постоянный
Частота кадров : 23,976 (24000/1001) кадра/сек
Цветовое пространство : YUV
Субдискретизация насыщенности : 4:2:0
Битовая глубина : 8 бит
Тип развёртки : Прогрессивная
Бит/(Пиксели*Кадры) : 0.327
Размер потока : 8,60 Гбайт (92%)
Язык : English
По умолчанию : Да
Принудительно : Нет
Цветовой диапазон : Limited
Основные цвета : BT.709
Характеристики трансфера : BT.709
Коэффициенты матрицы : BT.709

Аудио #1
Идентификатор : 2
Формат : AC-3
Формат/Информация : Audio Coding 3
Идентификатор кодека : A_AC3
Продолжительность : 1 ч. 40 м.
Вид битрейта : Постоянный
Битрейт : 192 Кбит/сек
Каналы : 2 канала
Расположение каналов : Front: L R
Частота : 48,0 КГц
Частота кадров : 31,250 кадров/сек (1536 SPF)
Битовая глубина : 16 бит
Метод сжатия : С потерями
Размер потока : 138 Мбайт (1%)
Заголовок : MVO
Язык : Russian
По умолчанию : Да
Принудительно : Нет

Аудио #2
Идентификатор : 3
Формат : E-AC-3
Формат/Информация : Enhanced Audio Coding 3
Идентификатор кодека : A_EAC3
Продолжительность : 1 ч. 40 м.
Вид битрейта : Постоянный
Битрейт : 640 Кбит/сек
Каналы : 6 каналов
Расположение каналов : Front: L C R, Side: L R, LFE
Частота : 48,0 КГц
Частота кадров : 187,500 кадров/сек (256 SPF)
Метод сжатия : С потерями
Размер потока : 460 Мбайт (5%)
Заголовок : Original
Язык : English
По умолчанию : Нет
Принудительно : Нет

Текст
Идентификатор : 4
Формат : UTF-8
Идентификатор кодека : S_TEXT/UTF8
Идентификатор кодека/Информация : UTF-8 Plain Text
Язык : English
По умолчанию : Нет
Принудительно : Нет
piratbit.pw



Скачать Завтрак на обочине через торрент https://i3.imageban.ru/out/2019/10/21/8c867682bef81df2b1dee221831d6669.png Скачать фильм Завтрак на обочине через торрент бесплантно в хорошем качестве Описание: Один раненый. Группа таинственных незнакомцев. У каждого своя история. Кому верить? Когда перепуганный, истекающий кровью Мэтт ... 10 10 3
Info! Золотая раздача, скачанное не засчитывается.
Торрент: Зарегистрирован [2019-10-20 21:30] · скачан: 35 раз
Статус: √ проверено
Размер: 9.37 GB
Как cкачать? Как скачать Завтрак на обочине через торрент | qTorrent


>> Регистрируемся здесь <<






Отзывы и комментарии о схеме читаем и пишем здесь: ---> Отзывы и комментарии о схеме

Новые благодарочки в телеграм довольных пользователей:
скриншот   скриншот   скриншот   скриншот   скриншот
    Дорогой пользователь! Огромная просьба, поблагодарите релизера, оцените раздачу и оставьте свои комментарий, если Вы скачали Завтрак на обочине через торрент бесплатно! Внесите свою лепту в развитие PiratBit!
    Комментировать посты могут только пользователи прошедшие не сложную регистрацию
    Показать сообщения:    

    Завтрак на обочине через торрент
    Скачать бесплатно Завтрак на обочине
    Завтрак на обочине скачать торрент
    Завтрак на обочине смотреть онлайн
    Cкачать фильм Завтрак на обочине бесплатно
    Завтрак на обочине скачать торрент в хорошем качестве
    Завтрак на обочине смотреть онлайн бесплатно в хорошем качестве


    Вы не можете начинать темы
    Вы не можете отвечать на сообщения
    Вы не можете редактировать свои сообщения
    Вы не можете удалять свои сообщения
    Вы не можете голосовать в опросах
    Вы не можете прикреплять файлы к сообщениям
    Вы можете скачивать файлы