1 сезон

1 сезон

iTunes

1

КиноПоиск HD

Кинопоиск HD

iTunes

13

1 сезон

RePack

30

Новинка

ВАЖНО

ИГРА 18+

pack

RePack

MK11
pack

Легкие деньги

RePack

jed

RePack

fifa19

RePack

RDR2

RePack

NEED FOR SPEED™ PAYBACK

4 сезон

9 сезон

Бесстыжие 9 сезон

Все сериалы

все сериалы на PB.wtf

RePack

FAR CRY 5
  
Magnet ссылка

Все леди делают это / Cosi fan tutte (Тинто Брасс) [1992 г., эротика, драма, комедия, BDRip] AVO (Леонид Володарский) piratbit.pw

Все леди делают это через торрент piratbit.pw

Размер: 1.42 GB | Добавлен: 1 год 6 мес. назад | Торрент скачан:43 раза
Скачать  

19-10-2019 17:40 Все леди делают это Скачать торрент  

Все леди делают это / Così fan tutte
Год выпуска: 1992

Страна: Италия

Жанр: Эротика, драма, комедия

Продолжительность: 01:36:37

Перевод: Авторский (одноголосый) - Леонид Володарский

Режиссер: Тинто Брасс

rating

В ролях: Клаудия Колль, Паоло Ланца, Орнелла Маркуччи, Изабелла Деяна, Франко Бранчароли, Ренцо Ринальди, Маурицио Мартиноли, Жан Рене Лемуан, Марко Марчани, Россана Ди Пьерро

Описание: Диана счастлива в браке с Полом, но постоянно ищет наслаждений на «празднике плоти`, нисколько не испытывая чувства вины перед мужем. Она и не собирается держать свои амурные похождения в тайне от него, считающего её рассказы о сексуальных приключениях плодом воображения. Эти «фантазии» возбуждают Пола и стимулируют супружеские любовные игры. И лишь когда Диана возвращается из короткой поездки в Венецию с отметинами от зубов на теле, в Поле начинает пробуждаться ревность… Он уходит из дома, не обращая внимания на многочисленные попытки Дианы помириться. Но затем Пол приходит к выводу, что постоянство в сексуальной жизни — вещь неестественная, а строгие моральные принципы не стоят того, чтобы портить из-за них жизнь и лишать себя радостей любви…
Качество: BDRip
Аудио кодек: AC3
Видео: XviD, 1900 Кбит/с, 720x400
Аудио: Русский, АС3, 2 ch, 192 Кбит/с
Видео
Идентификатор : 0
Формат : MPEG-4 Visual
Профиль формата : Advanced Simple@L5
Настройки формата : BVOP1
Параметр BVOP формата : 1
Параметр QPel формата : Нет
Параметр GMC формата : Без точки перехода
Параметр матрицы формата : Default (H.263)
Идентификатор кодека : XVID
Идентификатор кодека/Подсказка : XviD
Продолжительность : 1 ч. 36 м.
Битрейт : 1900 Кбит/сек
Ширина : 720 пикселей
Высота : 400 пикселей
Соотношение сторон : 16:9
Частота кадров : 23,976 (24000/1001) кадра/сек
Цветовое пространство : YUV
Субдискретизация насыщенности : 4:2:0
Битовая глубина : 8 бит
Тип развёртки : Прогрессивная
Метод сжатия : С потерями
Бит/(Пиксели*Кадры) : 0.275
Размер потока : 1,28 Гбайт (90%)
Библиотека кодирования : XviD 1.2.1 (UTC 2008-12-04)

Аудио
Идентификатор : 1
Формат : AC-3
Формат/Информация : Audio Coding 3
Коммерческое название : Dolby Digital
Идентификатор кодека : 2000
Продолжительность : 1 ч. 36 м.
Вид битрейта : Постоянный
Битрейт : 192 Кбит/сек
Каналы : 2 канала
ChannelLayout : L R
Частота : 48,0 КГц
Частота кадров : 31,250 кадров/сек (1536 SPF)
Битовая глубина : 16 бит
Метод сжатия : С потерями
Размер потока : 133 Мбайт (9%)
Выравнивание : Разделение по промежуткам
Продолжительность промежутка : 42 мс. (1,00 видеокадр)
Время предзагрузки промежутка : 500 мс.
ServiceKind/String : Complete Main

скриншот   скриншот   скриншот   скриншот   скриншот  

piratbit.pw



Скачать Все леди делают это через торрент https://pic1.kartinco.top/images/12/1xntu.jpg Скачать фильм Все леди делают это через торрент бесплантно в хорошем качестве Описание: Диана счастлива в браке с Полом, но постоянно ищет наслаждений на «празднике плоти`, нисколько не испытывая чувства вины перед ... 10 10 3
Торрент: Зарегистрирован [2019-10-19 17:40] · скачан: 43 раз
Статус: √ проверено
Размер: 1.42 GB
Как cкачать? Как скачать Все леди делают это через торрент | UTorrent

% Раздел Тема Автор DL S | L
Фильмы до 2000 г. [ 1.37 GB ] Все леди делают это / All Ladies Do It / Cosi fan tutte [1992 эротика DVDRip двухголосый] 19alexei87 Скачать
1 | 0

28-11-2019 20:33  

Отключить всю рекламу на сайте

    Дорогой пользователь! Огромная просьба, поблагодарите релизера, оцените раздачу и оставьте свои комментарий, если Вы скачали Все леди делают это через торрент бесплатно! Внесите свою лепту в развитие PiratBit!
    Комментировать посты могут только пользователи прошедшие не сложную регистрацию
    Показать сообщения:    

    Все леди делают это через торрент
    Скачать бесплатно Все леди делают это
    Все леди делают это скачать торрент
    Все леди делают это смотреть онлайн
    Cкачать фильм Все леди делают это бесплатно
    Все леди делают это скачать торрент в хорошем качестве
    Все леди делают это смотреть онлайн бесплатно в хорошем качестве


    Вы не можете начинать темы
    Вы не можете отвечать на сообщения
    Вы не можете редактировать свои сообщения
    Вы не можете удалять свои сообщения
    Вы не можете голосовать в опросах
    Вы не можете прикреплять файлы к сообщениям
    Вы можете скачивать файлы