Ссылка на приватное зеркало всего за 1$. Внимание количество ограничено!!!

iTunes

iTunes

iTunes

1

iTunes

iTunes

iTunes

iTunes

iTunes

30
pack

$ от Little Big

ВАЖНО

!!Акция!!

Alien_RageХит недели

RePack

Resident Evil 21

ИГРА 18+

pack

RePack

jed

!!Акция!!

Alien_Rage

RePack

fifa19

RePack

Assassins Creed: Odyssey

RePack

NEED FOR SPEED™ PAYBACK

4 сезон

9 сезон

Бесстыжие 9 сезон

Все сериалы

все сериалы на PB.wtf

RePack

FAR CRY 5
  

Судная ночь / The Purge / Сезон 2 / Серии 1-10 из 10 (Энтони Хемингуэй) [2019, ужасы, фантастика, боевик, триллер, драма, WEB-DL 1080p] MVO [TVShows] piratbit.pw

Судная ночь через торрент piratbit.pw

Размер: 27.69 GB | Добавлен: 6 мес. назад | Торрент скачан:7 раз
Скачать  

18-10-2019 18:44 Судная ночь Скачать торрент  

Судная ночь / The Purge Год выпуска: 2019
Страна: США
Жанр: ужасы, фантастика, боевик, триллер, драма
Продолжительность: ~00:50:00
Перевод: Профессиональный (многоголосый закадровый) | TVShows
Субтитры: английские

Режиссеры: Энтони Хемингуэй, Нина Лопес-Коррадо, Майкл Нанкин

В ролях: Гэбриел Чаварриа, Джессика Гарза, Ли Тергесен, Ханна Эмили Андерсон, Колин Вуделл, Лили Симмонс, Рид Даймонд, Аманда Уоррен, Паулина Гальвес, Эллисон Кинг.

Описание: Чтобы сократить уровень преступности, власти США ввели традицию Судной ночи. Раз в году на 12 часов разрешены любые преступления, которые не будут караться законом на следующий день. В центре истории — группа жителей американского городка, чьи судьбы рано или поздно пересекутся в одну из таких страшных ночей



Качество: WEB-DL 1080p
Формат: MKV

Видео: MPEG-4 AVC, ~ 7311 Кбит/с, 1920x1080
Аудио Rus: 48 kHz, AC3 Dolby Digital, 3/2 (L,C,R,l,r) + LFE ch, ~384.00 kbps
Аудио Eng: 48 kHz, E-AC3 Dolby Digital, 3/2 (L,C,R,l,r) + LFE ch, ~640.00 kbps
скриншот  скриншот  скриншот  скриншот  

General
Unique ID : 140746311635536822065154728207046503863 (0x69E2C0ECDA6EACC5E9CE8986AFE16DB7)
Complete name : The.Purge.S02E01.1080p.TVShows.mkv
Format : Matroska
Format version : Version 4
File size : 2.46 GiB
Duration : 42 min 9 s
Overall bit rate : 8 338 kb/s
Encoded date : UTC 2019-10-18 16:52:57
Writing application : mkvmerge v33.1.0 ('Primrose') 64-bit
Writing library : libebml v1.3.7 + libmatroska v1.5.0

Video
ID : 1
Format : AVC
Format/Info : Advanced Video Codec
Format profile : High@L4
Format settings : CABAC / 4 Ref Frames
Format settings, CABAC : Yes
Format settings, Reference frames : 4 frames
Codec ID : V_MPEG4/ISO/AVC
Duration : 42 min 9 s
Bit rate mode : Constant
Bit rate : 7 311 kb/s
Nominal bit rate : 10 000 kb/s
Width : 1 920 pixels
Height : 1 080 pixels
Display aspect ratio : 16:9
Frame rate mode : Constant
Frame rate : 23.976 (24000/1001) FPS
Color space : YUV
Chroma subsampling : 4:2:0
Bit depth : 8 bits
Scan type : Progressive
Bits/(Pixel*Frame) : 0.147
Stream size : 2.15 GiB (88%)
Language : English
Default : Yes
Forced : No
Color range : Limited
Color primaries : BT.709
Transfer characteristics : BT.709
Matrix coefficients : BT.709

Audio #1
ID : 2
Format : AC-3
Format/Info : Audio Coding 3
Commercial name : Dolby Digital
Codec ID : A_AC3
Duration : 42 min 9 s
Bit rate mode : Constant
Bit rate : 384 kb/s
Channel(s) : 6 channels
Channel layout : L R C LFE Ls Rs
Sampling rate : 48.0 kHz
Frame rate : 31.250 FPS (1536 SPF)
Compression mode : Lossy
Stream size : 116 MiB (5%)
Title : TVShows
Language : Russian
Service kind : Complete Main
Default : Yes
Forced : Yes

Audio #2
ID : 3
Format : E-AC-3
Format/Info : Enhanced AC-3
Commercial name : Dolby Digital Plus
Codec ID : A_EAC3
Duration : 42 min 9 s
Bit rate mode : Constant
Bit rate : 640 kb/s
Channel(s) : 6 channels
Channel layout : L R C LFE Ls Rs
Sampling rate : 48.0 kHz
Frame rate : 31.250 FPS (1536 SPF)
Compression mode : Lossy
Stream size : 193 MiB (8%)
Title : Original
Language : English
Service kind : Complete Main
Default : No
Forced : No

Text
ID : 4
Format : UTF-8
Codec ID : S_TEXT/UTF8
Codec ID/Info : UTF-8 Plain Text
Duration : 41 min 37 s
Bit rate : 51 b/s
Count of elements : 676
Stream size : 15.7 KiB (0%)
Title : English
Language : English
Default : No
Forced : No

Внимание! Раздача ведётся путём добавления новых серий; при каждом добавлении создаётся новый торрент. Чтобы начать докачку новой серии, пользователям необходимо сделать следующее:
(1) остановить скачивание,
(2) удалить старый торрент у себя из клиента (старые серии удалять не надо),
(3) скачать новый торрент и запустить его у себя в клиенте вместо старого, при этом указать клиенту путь в старую папку куда и должно происходить скачивание новых серий.
Ваш клиент при этом должен произвести хеширование (проверку) старой папки (если не производит сам - помогите ему сделать это), и будет докачивать только те серии которых у вас ещё нет. Старые серии при этом не удаляются, а продолжают раздаваться!
Eсли вы уже удалили старые серии, то предотвратить повторную закачку старых серий можно, отжав галочку в соответствующих местах при запуске нового торрента. По возможности, желательно не удалять старые серии как можно дольше чтобы релизёр не столько продолжал раздавать старые серии, а смог сконцентрироваться на новых.
piratbit.pw



Скачать Судная ночь через торрент https://i89.fastpic.ru/big/2019/1018/8c/c8d3e8c538b7658d6c6424d42753cb8c.jpg Скачать фильм Судная ночь через торрент бесплантно в хорошем качестве Описание: Чтобы сократить уровень преступности, власти США ввели традицию Судной ночи. Раз в году на 12 часов разрешены любые преступления, ... 10 10 3
Торрент: Зарегистрирован [2019-12-21 09:03] · скачан: 7 раз
Статус: √ проверено
Размер: 27.69 GB
Как cкачать? Как скачать Судная ночь через торрент | qTorrent

% Раздел Тема Автор DL S | L
Зарубежные сериалы [ 7.01 GB ] Судная ночь / The Purge / Сезон: 2 / Серии: 1-10 из 10 [2019 WEB-DLRip] MVO [TVShows] bober100 Скачать
1 | 0
Зарубежные сериалы [ 28.03 GB ] Судная ночь / The Purge / Сезон: 2 / Серии: 1-10 из 10 [2019 WEB-DL 1080p] MVO [Пифагор] bober100 Скачать
1 | 0
Зарубежные сериалы [ 13.85 GB ] Судная ночь / The Purge / Сезон: 2 / Серии: 1-10 из 10 [2019 WEB-DL 720p] MVO [TVShows] bober100 Скачать
1 | 0
Зарубежные сериалы [ 1.17 GB ] Судная ночь / The Purge / Сезон 2 / Серии 1- из 10 [2019 WEB-DL 720p] MVO [AlexFilm] bober100 Скачать
1 | 0
Зарубежные сериалы [ 4.89 GB ] Судная ночь / The Purge / Сезон: 2 / Серии: 1-10 из 10 [2019 WEB-DLRip] MVO [Jaskier] bober100 Скачать
1 | 0
Зарубежные сериалы [ 27.07 GB ] Судная ночь / The Purge / Сезон: 2 / Серии: 1-10 из 10 [2019 WEB-DL 1080p] MVO [Jaskier] bober100 Скачать
1 | 0
Зарубежные сериалы [ 13.04 GB ] Судная ночь / The Purge / Сезон: 2 / Серии: 1-10 из 10 [2019 WEB-DL 720p] MVO [Jaskier] bober100 Скачать
1 | 0


Последний раз редактировалось: bober100 (2019-12-21 09:03), всего редактировалось 1 раз

28-11-2019 20:33  

Отключить всю рекламу на сайте

14-12-2019 16:23 Судная ночь Скачать торрент  

по моему сериал полная поебеньpiratbit.pw



    Дорогой пользователь! Огромная просьба, поблагодарите релизера, оцените раздачу и оставьте свои комментарий, если Вы скачали Судная ночь через торрент бесплатно! Внесите свою лепту в развитие PiratBit!
    Комментировать посты могут только пользователи прошедшие не сложную регистрацию
    Показать сообщения:    

    Судная ночь через торрент
    Скачать бесплатно Судная ночь
    Судная ночь скачать торрент
    Судная ночь смотреть онлайн
    Cкачать фильм Судная ночь бесплатно
    Судная ночь скачать торрент в хорошем качестве
    Судная ночь смотреть онлайн бесплатно в хорошем качестве


    Вы не можете начинать темы
    Вы не можете отвечать на сообщения
    Вы не можете редактировать свои сообщения
    Вы не можете удалять свои сообщения
    Вы не можете голосовать в опросах
    Вы не можете прикреплять файлы к сообщениям
    Вы можете скачивать файлы