Ссылка на приватное зеркало всего за 1$. Внимание количество ограничено!!!

iTunes

iTunes

iTunes

1

iTunes

iTunes

iTunes

iTunes

iTunes

30
pack

$ от Little Big

ВАЖНО

!!Акция!!

Alien_RageХит недели

RePack

Resident Evil 21

ИГРА 18+

pack

RePack

jed

!!Акция!!

Alien_Rage

RePack

fifa19

RePack

Assassins Creed: Odyssey

RePack

NEED FOR SPEED™ PAYBACK

4 сезон

9 сезон

Бесстыжие 9 сезон

Все сериалы

все сериалы на PB.wtf

RePack

FAR CRY 5
  

Судная ночь / The Purge / Сезон 2 / Серии 1- из 10 (Энтони Хемингуэй) [2019, ужасы, фантастика, боевик, триллер, драма, WEB-DL 720p] MVO [AlexFilm] piratbit.pw

Судная ночь через торрент piratbit.pw

Размер: 1.17 GB | Добавлен: 8 мес. назад | Торрент скачан:8 раз
Скачать  

18-10-2019 17:33 Судная ночь Скачать торрент  

Судная ночь / The Purge Год выпуска: 2019
Страна: США
Жанр: ужасы, фантастика, боевик, триллер, драма
Продолжительность: ~00:50:00
Перевод: Профессиональный (многоголосый закадровый) | AlexFilm
Субтитры: английские

Режиссеры: Энтони Хемингуэй, Нина Лопес-Коррадо, Майкл Нанкин

В ролях: Гэбриел Чаварриа, Джессика Гарза, Ли Тергесен, Ханна Эмили Андерсон, Колин Вуделл, Лили Симмонс, Рид Даймонд, Аманда Уоррен, Паулина Гальвес, Эллисон Кинг.

Описание: Чтобы сократить уровень преступности, власти США ввели традицию Судной ночи. Раз в году на 12 часов разрешены любые преступления, которые не будут караться законом на следующий день. В центре истории — группа жителей американского городка, чьи судьбы рано или поздно пересекутся в одну из таких страшных ночей

Сэмпл: http://sendfile.su/1522965


Качество: WEB-DL 720p
Формат: MKV

Видео: 1280х720 (16:9), 23.976 fps, MPEG-4 AVC ~3200 kbps avg, 0.145 bit/pixel
Аудио Rus: 48 kHz, AC3 Dolby Digital, 3/2 (L,C,R,l,r) + LFE ch, ~384.00 kbps
Аудио Eng: 48 kHz, AC3 Dolby Digital, 3/2 (L,C,R,l,r) + LFE ch, ~384.00 kbps


Реклама: аудио (два раза, в начале 10 и в конце 10 сек.)
Релиз:

Перевод: Дэа Мортис
Монтаж и сведение звука: Михаил Шорыгин
Роли озвучивали:

Татьяна Манетина
Светлана Чистохина
Константин Федосеев
Дмитрий Лунёв
Кирилл Патрино
Михаил Цареградский
" rel="gallery" target="_blank" class="postLink fancybox fancybox-media">
Формат : Matroska
Версия формата : Version 4 / Version 2
Размер файла : 1,17 Гбайт
Продолжительность : 42 м. 9 с.
Общий поток : 3982 Кбит/сек
Название фильма : The Purge 2x01 @ AlexFilm
Дата кодирования : UTC 2019-10-18 16:42:08
Программа кодирования : mkvmerge v7.9.0 ('Birds') 64bit
Библиотека кодирования : libebml v1.3.1 + libmatroska v1.4.2

Видео
Идентификатор : 1
Формат : AVC
Формат/Информация : Advanced Video Codec
Профиль формата : High@L3.1
Параметр CABAC формата : Да
Параметр ReFrames формата : 4 кадра
Идентификатор кодека : V_MPEG4/ISO/AVC
Продолжительность : 42 м. 9 с.
Вид битрейта : Постоянный
Битрейт : 3212 Кбит/сек
Номинальный битрейт : 6000 Кбит/сек
Ширина : 1280 пикселей
Высота : 720 пикселей
Соотношение сторон : 16:9
Режим частоты кадров : Постоянный
Частота кадров : 23,976 (24000/1001) кадра/сек
Цветовое пространство : YUV
Субдискретизация насыщенности : 4:2:0
Битовая глубина : 8 бит
Тип развёртки : Прогрессивная
Бит/(Пиксели*Кадры) : 0.145
Размер потока : 968 Мбайт (81%)
Язык : English
Default : Да
Forced : Нет
Цветовой диапазон : Limited
Основные цвета : BT.709
Характеристики трансфера : BT.709
Коэффициенты матрицы : BT.709

Аудио #1
Идентификатор : 2
Формат : AC-3
Формат/Информация : Audio Coding 3
Расширение режима : CM (complete main)
Параметр Endianness формата : Big
Идентификатор кодека : A_AC3
Продолжительность : 42 м. 9 с.
Вид битрейта : Постоянный
Битрейт : 384 Кбит/сек
Каналы : 6 каналов
Расположение каналов : Front: L C R, Side: L R, LFE
Частота : 48,0 КГц
Частота кадров : 31,250 кадров/сек (1536 spf)
Метод сжатия : С потерями
Размер потока : 116 Мбайт (10%)
Заголовок : DD5.1 AlexFilm
Язык : Russian
Default : Да
Forced : Нет

Аудио #2
Идентификатор : 3
Формат : AC-3
Формат/Информация : Audio Coding 3
Расширение режима : CM (complete main)
Параметр Endianness формата : Big
Идентификатор кодека : A_AC3
Продолжительность : 42 м. 9 с.
Вид битрейта : Постоянный
Битрейт : 384 Кбит/сек
Каналы : 6 каналов
Расположение каналов : Front: L C R, Side: L R, LFE
Частота : 48,0 КГц
Частота кадров : 31,250 кадров/сек (1536 spf)
Метод сжатия : С потерями
Размер потока : 116 Мбайт (10%)
Заголовок : DD5.1 Original
Язык : English
Default : Нет
Forced : Нет

Текст
Идентификатор : 4
Формат : UTF-8
Идентификатор кодека : S_TEXT/UTF8
Идентификатор кодека/Информация : UTF-8 Plain Text
Продолжительность : 41 м. 37 с.
Битрейт : 51 бит/сек
Count of elements : 676
Размер потока : 15,7 Кбайт (0%)
Заголовок : English
Язык : English
Default : Нет
Forced : Нет
Внимание! Раздача ведётся путём добавления новых серий; при каждом добавлении создаётся новый торрент. Чтобы начать докачку новой серии, пользователям необходимо сделать следующее:
(1) остановить скачивание,
(2) удалить старый торрент у себя из клиента (старые серии удалять не надо),
(3) скачать новый торрент и запустить его у себя в клиенте вместо старого, при этом указать клиенту путь в старую папку куда и должно происходить скачивание новых серий.
Ваш клиент при этом должен произвести хеширование (проверку) старой папки (если не производит сам - помогите ему сделать это), и будет докачивать только те серии которых у вас ещё нет. Старые серии при этом не удаляются, а продолжают раздаваться!
Eсли вы уже удалили старые серии, то предотвратить повторную закачку старых серий можно, отжав галочку в соответствующих местах при запуске нового торрента. По возможности, желательно не удалять старые серии как можно дольше чтобы релизёр не столько продолжал раздавать старые серии, а смог сконцентрироваться на новых.
piratbit.pw



Скачать Судная ночь через торрент https://i89.fastpic.ru/big/2019/1018/8c/c8d3e8c538b7658d6c6424d42753cb8c.jpg Скачать фильм Судная ночь через торрент бесплантно в хорошем качестве Описание: Чтобы сократить уровень преступности, власти США ввели традицию Судной ночи. Раз в году на 12 часов разрешены любые преступления, ... 10 10 2
Торрент: Зарегистрирован [2019-10-18 17:33] · скачан: 8 раз
Статус: √ проверено
Размер: 1.17 GB
Как cкачать? Как скачать Судная ночь через торрент | qTorrent

% Раздел Тема Автор DL S | L
Зарубежные сериалы [ 27.69 GB ] Судная ночь / The Purge / Сезон 2 / Серии 1-10 из 10 [2019 WEB-DL 1080p] MVO [TVShows] bober100 Скачать
1 | 0
Зарубежные сериалы [ 7.01 GB ] Судная ночь / The Purge / Сезон: 2 / Серии: 1-10 из 10 [2019 WEB-DLRip] MVO [TVShows] bober100 Скачать
1 | 0
Зарубежные сериалы [ 28.03 GB ] Судная ночь / The Purge / Сезон: 2 / Серии: 1-10 из 10 [2019 WEB-DL 1080p] MVO [Пифагор] bober100 Скачать
1 | 0
Зарубежные сериалы [ 13.85 GB ] Судная ночь / The Purge / Сезон: 2 / Серии: 1-10 из 10 [2019 WEB-DL 720p] MVO [TVShows] bober100 Скачать
1 | 0
Зарубежные сериалы [ 4.89 GB ] Судная ночь / The Purge / Сезон: 2 / Серии: 1-10 из 10 [2019 WEB-DLRip] MVO [Jaskier] bober100 Скачать
1 | 0
Зарубежные сериалы [ 27.07 GB ] Судная ночь / The Purge / Сезон: 2 / Серии: 1-10 из 10 [2019 WEB-DL 1080p] MVO [Jaskier] bober100 Скачать
1 | 0
Зарубежные сериалы [ 13.04 GB ] Судная ночь / The Purge / Сезон: 2 / Серии: 1-10 из 10 [2019 WEB-DL 720p] MVO [Jaskier] bober100 Скачать
1 | 0

28-11-2019 20:33  

Отключить всю рекламу на сайте

    Дорогой пользователь! Огромная просьба, поблагодарите релизера, оцените раздачу и оставьте свои комментарий, если Вы скачали Судная ночь через торрент бесплатно! Внесите свою лепту в развитие PiratBit!
    Комментировать посты могут только пользователи прошедшие не сложную регистрацию
    Показать сообщения:    

    Судная ночь через торрент
    Скачать бесплатно Судная ночь
    Судная ночь скачать торрент
    Судная ночь смотреть онлайн
    Cкачать фильм Судная ночь бесплатно
    Судная ночь скачать торрент в хорошем качестве
    Судная ночь смотреть онлайн бесплатно в хорошем качестве


    Вы не можете начинать темы
    Вы не можете отвечать на сообщения
    Вы не можете редактировать свои сообщения
    Вы не можете удалять свои сообщения
    Вы не можете голосовать в опросах
    Вы не можете прикреплять файлы к сообщениям
    Вы можете скачивать файлы