Ссылка на приватное зеркало нашего сайта всего за 1$. Внимание количество ограничено!!!

2 сезон

iTunes

1 сезон

1

iTunes

iTunes

iTunes

1 сезон

RePack

30

ИГРА 18+

pack

ВАЖНО

!!Акция!!

Alien_RageХит недели

RePack

MK11
pack

Забери бонус

RePack

jed

!!Акция!!

Alien_Rage

RePack

fifa19

RePack

Assassins Creed: Odyssey

RePack

NEED FOR SPEED™ PAYBACK

4 сезон

9 сезон

Бесстыжие 9 сезон

Все сериалы

все сериалы на PB.wtf

RePack

FAR CRY 5
  

Месье составит вам компанию / Un monsieur de compagnie (Филипп де Брока) [1964, комедия, BDRip 720p by msltel] DVO piratbit.pw

Месье составит вам компанию через торрент piratbit.pw

Размер: 3.98 GB | Добавлен: 1 год назад | Торрент скачан:7 раз
Скачать  

16-10-2019 06:04 Месье составит вам компанию Скачать торрент  

Название: Месье составит вам компанию
Оригинальное название: Un monsieur de compagnie
Год выпуска: 1964
Страна: Италия, Франция
Жанр: комедия
Продолжительность: 01:31:59
Перевод: закадровый двухголосый

Режиссер: Филипп де Брока
В ролях: Жан-Пьер Кассель, Ирина Демик, Катрин Денёв, Жан-Клод Бриали, Анни Жирардо, Валери Лагранж, Сандра Мило, Адольфо Чели, Марсель Далио, Андре Люге, Жан-Пьер Марьель

О фильме: Антуан — молодой человек, проживший всю свою жизнь под опекой деда, считавшего, что лень является не пороком, а величайшей благодетелью. В этом духе старик воспитал и своего внука. После смерти деда Антуан узнаёт, что остался без гроша в кармане, но не унывает и начинает колесить по Европе, составляя компанию различным людям и живя за их счёт...



Качество: BDRip 720p
Формат: MKV
Видео: MPEG-4 AVC, 5804 Кбит/с, 1196x720, 24 кадр/с
Аудио 1: русский, AC3, 192 kbps, 2 ch, 48 kHz [закадровый двухголосый, Владислав Данилов и Алёна Соколова]
Аудио 2: французский, AC3, 192 kbps, 2 ch, 48 kHz [оригинал]
Субтитры: русские
Главы/чаптеры
Общее
Уникальный идентификатор : 254870959489308169822303607753177116442 (0xBFBE5C7D1397D55F8622F6BEA5E52F1A)
Полное имя : D:\Video\Месье составит вам компанию.1964.BDRip 720p by msltel.mkv
Формат : Matroska
Версия формата : Version 4
Размер файла : 3,98 Гбайт
Продолжительность : 1 ч. 31 м.
Общий поток : 6190 Кбит/сек
Название фильма : Rip by msltel
Дата кодирования : UTC 2019-10-16 01:25:48
Программа кодирования : mkvmerge v8.2.0 ('World of Adventure') 64bit
Библиотека кодирования : libebml v1.3.1 + libmatroska v1.4.2

Видео
Идентификатор : 1
Формат : AVC
Формат/Информация : Advanced Video Codec
Профиль формата : High@L4.1
Настройки формата : CABAC / 9 Ref Frames
Параметр CABAC формата : Да
Параметр RefFrames формата : 9 кадров
Идентификатор кодека : V_MPEG4/ISO/AVC
Продолжительность : 1 ч. 31 м.
Битрейт : 5804 Кбит/сек
Ширина : 1196 пикселей
Высота : 720 пикселей
Соотношение сторон : 5:3
Режим частоты кадров : Постоянный
Частота кадров : 24,000 кадра/сек
Цветовое пространство : YUV
Субдискретизация насыщенности : 4:2:0
Битовая глубина : 8 бит
Тип развёртки : Прогрессивная
Бит/(Пиксели*Кадры) : 0.281
Размер потока : 3,73 Гбайт (94%)
Библиотека кодирования : x264 core 157 r2935 545de2f
Настройки программы : cabac=1 / ref=9 / deblock=1:-2:-2 / analyse=0x3:0x113 / me=umh / subme=11 / psy=1 / psy_rd=1.00:0.15 / mixed_ref=1 / me_range=32 / chroma_me=1 / trellis=2 / 8x8dct=1 / cqm=0 / deadzone=21,11 / fast_pskip=0 / chroma_qp_offset=-3 / threads=6 / lookahead_threads=1 / sliced_threads=0 / nr=0 / decimate=1 / interlaced=0 / bluray_compat=0 / constrained_intra=0 / bframes=13 / b_pyramid=2 / b_adapt=2 / b_bias=0 / direct=1 / weightb=1 / open_gop=0 / weightp=2 / keyint=230 / keyint_min=23 / scenecut=40 / intra_refresh=0 / rc_lookahead=40 / rc=crf / mbtree=1 / crf=19.0 / qcomp=0.60 / qpmin=0 / qpmax=69 / qpstep=4 / vbv_maxrate=50000 / vbv_bufsize=62500 / crf_max=0.0 / nal_hrd=none / filler=0 / ip_ratio=1.40 / aq=1:1.00
Язык : French
Default : Да
Forced : Нет

Аудио #1
Идентификатор : 2
Формат : AC-3
Формат/Информация : Audio Coding 3
Коммерческое название : Dolby Digital
Идентификатор кодека : A_AC3
Продолжительность : 1 ч. 31 м.
Вид битрейта : Постоянный
Битрейт : 192 Кбит/сек
Каналы : 2 канала
ChannelLayout : L R
Частота : 48,0 КГц
Частота кадров : 31,250 кадров/сек (1536 SPF)
Метод сжатия : С потерями
Размер потока : 126 Мбайт (3%)
Заголовок : Владислав Данилов, Алёна Соколова
Язык : Russian
ServiceKind/String : Complete Main
Default : Да
Forced : Нет

Аудио #2
Идентификатор : 3
Формат : AC-3
Формат/Информация : Audio Coding 3
Коммерческое название : Dolby Digital
Идентификатор кодека : A_AC3
Продолжительность : 1 ч. 31 м.
Вид битрейта : Постоянный
Битрейт : 192 Кбит/сек
Каналы : 2 канала
ChannelLayout : L R
Частота : 48,0 КГц
Частота кадров : 31,250 кадров/сек (1536 SPF)
Метод сжатия : С потерями
Размер потока : 126 Мбайт (3%)
Заголовок : original
Язык : French
ServiceKind/String : Complete Main
Default : Нет
Forced : Нет

Текст
Идентификатор : 4
Формат : UTF-8
Идентификатор кодека : S_TEXT/UTF8
Идентификатор кодека/Информация : UTF-8 Plain Text
Продолжительность : 1 ч. 31 м.
Битрейт : 98 бит/сек
ElementCount : 1220
Размер потока : 65,9 Кбайт (0%)
Заголовок : русские Антон Каптелов
Язык : Russian
Default : Нет
Forced : Нет

Меню
00:00:00.000 : :Chapter 1
00:06:54.000 : :Chapter 2
00:13:07.000 : :Chapter 3
00:25:17.166 : :Chapter 4
00:36:54.958 : :Chapter 5
00:45:29.958 : :Chapter 6
00:52:37.708 : :Chapter 7
01:01:03.500 : :Chapter 8
01:08:02.750 : :Chapter 9
01:14:31.916 : :Chapter 10
01:20:05.957 : :Chapter 11
01:26:46.791 : :Chapter 12
01:31:58.750 : :Chapter 13
piratbit.pw



Скачать Месье составит вам компанию через торрент https://c.radikal.ru/c37/1910/a0/866cc902465e.png Скачать фильм Месье составит вам компанию через торрент бесплантно в хорошем качестве О фильме: Антуан — молодой человек, проживший всю свою жизнь под опекой деда, считавшего, что лень является не пороком, а величайшей ... 5 10 1
Торрент: Зарегистрирован [2019-10-16 06:04] · скачан: 7 раз
Статус: √ проверено
Размер: 3.98 GB
Как cкачать? Как скачать Месье составит вам компанию через торрент | qTorrent

% Раздел Тема Автор DL S | L
Классика зарубежного кино [ 11.17 GB ] Месье составит вам компанию / Un monsieur de compagnie [1964 BDRip 1080p by msltel] DVO msltel Скачать
1 | 0
Классика зарубежного кино [ 2.44 GB ] Месье составит вам компанию / Un monsieur de compagnie [1964 BDRip by msltel] DVO msltel Скачать
1 | 0

28-11-2019 20:33  

Отключить всю рекламу на сайте

    Дорогой пользователь! Огромная просьба, поблагодарите релизера, оцените раздачу и оставьте свои комментарий, если Вы скачали Месье составит вам компанию через торрент бесплатно! Внесите свою лепту в развитие PiratBit!
    Комментировать посты могут только пользователи прошедшие не сложную регистрацию
    Показать сообщения:    

    Месье составит вам компанию через торрент
    Скачать бесплатно Месье составит вам компанию
    Месье составит вам компанию скачать торрент
    Месье составит вам компанию смотреть онлайн
    Cкачать фильм Месье составит вам компанию бесплатно
    Месье составит вам компанию скачать торрент в хорошем качестве
    Месье составит вам компанию смотреть онлайн бесплатно в хорошем качестве


    Вы не можете начинать темы
    Вы не можете отвечать на сообщения
    Вы не можете редактировать свои сообщения
    Вы не можете удалять свои сообщения
    Вы не можете голосовать в опросах
    Вы не можете прикреплять файлы к сообщениям
    Вы можете скачивать файлы