новый адрес
Мега распродажа FORZA HORIZON 4 ULTIMATE+ВСЕ DLC+ОНЛАЙН всего за 499р. 349 руб. (супер цена). Внимание количество ограничено!!!

iTunes

1+1

iTunes

мы

iTunes

1

iTunes

Чернобыль

iTunes

Ральф против интернета

Лицензия

ПШазам

Лицензия

Оно 2

Лицензия

30
pack

ВАЖНО

!!Акция!!

Alien_RageХит недели

RePack

Resident Evil 21

ИГРА 18+

pack

RePack

jed

!!Акция!!

Alien_Rage

RePack

fifa19

RePack

Assassins Creed: Odyssey

RePack

NEED FOR SPEED™ PAYBACK

3 сезон

9 сезон

Бесстыжие 9 сезон

Все сериалы

все сериалы на PB.wtf

RePack

FAR CRY 5
Ребята, катастрофически не хватает 1900р. для оплаты серверов за Октябрь (всвязи с блокировками трафик упал в 3 раза), 1-2р., выручайте.
  

Условный мент / Охта / Сезон: 1 / Серии: 1-19 из 24 (Андрей Коршунов) [2019, Детектив, приключения, WEB-DL 1080p] piratbit.pw

Условный мент через торрент piratbit.pw

Раздают: 1 [ 0 KB/s ]
Размер: 14.38 GB | Добавлен: 5 д. назад | Торрент скачан:5 раз
Скачать  

15-10-2019 17:43 Условный мент Скачать торрент  

Условный мент / Охта
Год выпуска: 2019
Страна: Россия
Жанр: Детектив, приключения
Продолжительность: ~ 00:39:46
Субтитры: отсутствуют

Режиссер: Андрей Коршунов



В ролях: Денис Рожков, Анастасия Тюнина, Алексей Нилов, Егор Бакулин, Сергей Кошонин, Алексей Фокин, Кирилл Балобан, Ольга Богданова, Любовь Макеева, Александра Сыдорук, Сергей Фролов, Алексей Байдаков, Ольга Кирсанова-Миропольская, Евгений Карпов, Виталий Бисеров, Роман Притула, Олег Попов (II), Михаил Черняк, Евгений Антонов

Описание: Одновременно в Петербург приезжают бывший опер Дмитрий Рыжов, отсидевший в колонии за превышение полномочий, и капитан полиции Арина Гордеева. Рыжов устраивается работать в Жилкомсервис, чтобы зарабатывать деньги, ездить на своей аварийной машине по родному району и больше не иметь ничего общего с полицией. Гордеева становится участковым этого же района. В нём всем заправляет бизнесмен Вениамин Воронов – он же Веня Ворон. Под его «покровительством» практически все злачные точки и многие предприятия, которые за долю немалую прикрывает местный участковый капитан Тельцов...

Качество: WEB-DL 1080p
Формат: MKV

Видео: MPEG4 AVC Video, H264, 16:9, 1920x1080, 25 fps, ~3300 kbps, 0.063 bit/pixel
Аудио: AC3 Dolby Digital, 48.0 kHz, 2/0 (L,R) ch, 192 kbps
скриншот  скриншот  скриншот  скриншот  

General
Unique ID : 234001576429738615568454590711342625658 (0xB00B10767CF54F8DA5EE96A20E04F37A)
Complete name : D:\Условный мент.2019 WEB-DL 1080p. Files-x\01. Условный мент.2019 WEB-DL 1080p. Files-x.mkv
Format : Matroska
Format version : Version 2
File size : 1 015 MiB
Duration : 40 min 9 s
Overall bit rate : 3 535 kb/s
Encoded date : UTC 2019-10-15 09:33:36
Writing application : mkvmerge v7.8.0 ('River Man') 32bit built on Apr 3 2015 12:11:22
Writing library : libebml v1.3.1 + libmatroska v1.4.2

Video
ID : 1
Format : AVC
Format/Info : Advanced Video Codec
Format profile : High@L4
Format settings : CABAC / 3 Ref Frames
Format settings, CABAC : Yes
Format settings, ReFrames : 3 frames
Codec ID : V_MPEG4/ISO/AVC
Duration : 40 min 9 s
Bit rate : 3 273 kb/s
Width : 1 920 pixels
Height : 1 080 pixels
Display aspect ratio : 16:9
Frame rate mode : Constant
Frame rate : 25.000 FPS
Color space : YUV
Chroma subsampling : 4:2:0
Bit depth : 8 bits
Scan type : Progressive
Bits/(Pixel*Frame) : 0.063
Stream size : 940 MiB (93%)
Default : Yes
Forced : No
Color range : Limited
Color primaries : BT.709
Transfer characteristics : BT.709
Matrix coefficients : BT.709

Audio
ID : 2
Format : AC-3
Format/Info : Audio Coding 3
Codec ID : A_AC3
Duration : 40 min 9 s
Bit rate mode : Constant
Bit rate : 192 kb/s
Channel(s) : 2 channels
Channel positions : Front: L R
Sampling rate : 44.1 kHz
Frame rate : 28.711 FPS (1536 SPF)
Bit depth : 16 bits
Compression mode : Lossy
Stream size : 55.1 MiB (5%)
Service kind : Complete Main
Default : Yes
Forced : No

Внимание! Раздача ведётся путём добавления новых серий; при каждом добавлении создfётся новый торрент. Чтобы начать докачку новой серии, пользователям необходимо сделать следующее: (1) остановить скачивание, (2) удалить старый торрент у себя из клиента (старые серии удалять не надо), (3) скачать новый торрент и запустить его у себя в клиенте вместо старого, при этом указать клиенту путь в старую папку куда и должно происходить скачивание новых серий.

Ваш клиент при этом должен произвести хеширование (проверку) старой папки (если не производит сам - помогите ему сделать это), и будет докачивать только те серии которых у вас ещё нет. Старые серии при этом не удаляются, а продолжают раздаваться!

Eсли вы уже удалили старые серии, то предотвратить повторную закачку старых серий можно, отжав галочку в соответсвующих местах при запуске нового торрента.
piratbit.pw



Скачать Условный мент через торрент https://i90.fastpic.ru/big/2019/1014/28/b81fe807591b4b5862fbbf1adf1c2528.jpg Скачать фильм Условный мент через торрент бесплантно в хорошем качестве Описание: Одновременно в Петербург приезжают бывший опер Дмитрий Рыжов, отсидевший в колонии за превышение полномочий, и капитан полиции ... 10 10 7
Торрент: Зарегистрирован [2019-11-15 14:29] · скачан: 5 раз
Статус: √ проверено
Размер: 14.38 GB
Как cкачать? Как скачать Условный мент через торрент | qTorrent

% Раздел Тема Автор DL S | L
Наши сериалы [ 10.85 GB ] Условный мент / Охта / Сезон: 1 / Серии: 1-21 из 24 [2019 WEBRip-AVC] bober100 Скачать
2 | 3
Наши сериалы [ 10.65 GB ] Условный мент / Охта / Сезон: 1 / Серии: 1-20 из 24 [2019 WEB-DL 720p] bober100 Скачать
2 | 0
Наши сериалы [ 9.85 GB ] Условный мент / Охта / Сезон: 1 / Серии: 1-19 из 24 [2019 WEB-DLRip] bober100 Скачать
1 | 0
Наши сериалы [ 11.03 GB ] Условный мент / Охта / Сезон: 1 / Серии: 1-22 из 24 [2019 SATRip] bober100 Скачать
3 | 2


Последний раз редактировалось: bober100 (2019-11-15 14:29), всего редактировалось 12 раз(а)


>> Регистрируемся здесь <<






Отзывы и комментарии о схеме читаем и пишем здесь: ---> Отзывы и комментарии о схеме

Новые благодарочки в телеграм довольных пользователей:
скриншот   скриншот   скриншот   скриншот   скриншот

16-10-2019 14:33 Условный мент Скачать торрент  

bober100, Сериал Условный мент дружище офигенный,как часто будут добовляться серии!?Раздача у тебя классная,особенно качество,так держать!!!piratbit.pw



    Дорогой пользователь! Огромная просьба, поблагодарите релизера, оцените раздачу и оставьте свои комментарий, если Вы скачали Условный мент через торрент бесплатно! Внесите свою лепту в развитие PiratBit!
    Комментировать посты могут только пользователи прошедшие не сложную регистрацию
    Показать сообщения:    

    Условный мент через торрент
    Скачать бесплатно Условный мент
    Условный мент скачать торрент
    Условный мент смотреть онлайн
    Cкачать фильм Условный мент бесплатно
    Условный мент скачать торрент в хорошем качестве
    Условный мент смотреть онлайн бесплатно в хорошем качестве


    Вы не можете начинать темы
    Вы не можете отвечать на сообщения
    Вы не можете редактировать свои сообщения
    Вы не можете удалять свои сообщения
    Вы не можете голосовать в опросах
    Вы не можете прикреплять файлы к сообщениям
    Вы можете скачивать файлы