новый адрес
Мега распродажа FORZA HORIZON 4 ULTIMATE+ВСЕ DLC+ОНЛАЙН всего за 499р. 349 руб. (супер цена). Внимание количество ограничено!!!

iTunes

1+1

iTunes

мы

iTunes

1

iTunes

Чернобыль

iTunes

Ральф против интернета

Лицензия

ПШазам

Лицензия

Оно 2

Лицензия

30
pack

ВАЖНО

!!Акция!!

Alien_RageХит недели

RePack

Resident Evil 21

ИГРА 18+

pack

RePack

jed

!!Акция!!

Alien_Rage

RePack

fifa19

RePack

Assassins Creed: Odyssey

RePack

NEED FOR SPEED™ PAYBACK

3 сезон

9 сезон

Бесстыжие 9 сезон

Все сериалы

все сериалы на PB.wtf

RePack

FAR CRY 5
Ребята, катастрофически не хватает 1900р. для оплаты серверов за Октябрь (всвязи с блокировками трафик упал в 3 раза), 1-2р., выручайте.
  

Условный мент / Охта / Сезон: 1 / Серии: 1-19 из 24 (Андрей Коршунов) [2019, Детектив, приключения, WEB-DLRip] piratbit.pw

Условный мент через торрент piratbit.pw

Размер: 9.85 GB | Добавлен: 5 д. назад | Торрент скачан:9 раз
Скачать  

15-10-2019 17:42 Условный мент Скачать торрент  

Условный мент / Охта
Год выпуска: 2019
Страна: Россия
Жанр: Детектив, приключения
Продолжительность: ~ 00:39:46
Субтитры: отсутствуют

Режиссер: Андрей Коршунов



В ролях: Денис Рожков, Анастасия Тюнина, Алексей Нилов, Егор Бакулин, Сергей Кошонин, Алексей Фокин, Кирилл Балобан, Ольга Богданова, Любовь Макеева, Александра Сыдорук, Сергей Фролов, Алексей Байдаков, Ольга Кирсанова-Миропольская, Евгений Карпов, Виталий Бисеров, Роман Притула, Олег Попов (II), Михаил Черняк, Евгений Антонов

Описание: Одновременно в Петербург приезжают бывший опер Дмитрий Рыжов, отсидевший в колонии за превышение полномочий, и капитан полиции Арина Гордеева. Рыжов устраивается работать в Жилкомсервис, чтобы зарабатывать деньги, ездить на своей аварийной машине по родному району и больше не иметь ничего общего с полицией. Гордеева становится участковым этого же района. В нём всем заправляет бизнесмен Вениамин Воронов – он же Веня Ворон. Под его «покровительством» практически все злачные точки и многие предприятия, которые за долю немалую прикрывает местный участковый капитан Тельцов...

Качество: WEB-DLRip
Формат: AVI

Видео: XviD, 1600 Кбит/с, 720x400
Аудио: AC3, 2 ch, 192 Кбит/с
скриншот  скриншот  скриншот  скриншот  

Общее
Полное имя : C:\Условный мент.2019 WEB-DLRip. Files-x\01. Условный мент.2019 WEB-DLRip. Files-x.avi
Формат : AVI
Формат/Информация : Audio Video Interleave
Размер файла : 518 Мбайт
Продолжительность : 40 м. 9 с.
Общий поток : 1803 Кбит/сек
Программа кодирования : VirtualDubMod 1.5.10.3 | www.virtualdub-fr.org || (build 2550/release)
Библиотека кодирования : VirtualDubMod build 2550/release

Видео
Идентификатор : 0
Формат : MPEG-4 Visual
Профиль формата : Advanced Simple@L5
Настройки формата : BVOP1 / Custom Matrix
Параметр BVOP формата : 1
Параметр QPel формата : Нет
Параметр GMC формата : Без точки перехода
Параметр матрицы формата : Выборочная
Идентификатор кодека : XVID
Идентификатор кодека/Подсказка : XviD
Продолжительность : 40 м. 9 с.
Битрейт : 1530 Кбит/сек
Ширина : 720 пикселей
Высота : 400 пикселей
Соотношение сторон : 16:9
Частота кадров : 25,000 кадров/сек
Цветовое пространство : YUV
Субдискретизация насыщенности : 4:2:0
Битовая глубина : 8 бит
Тип развёртки : Прогрессивная
Метод сжатия : С потерями
Бит/(Пиксели*Кадры) : 0.213
Размер потока : 439 Мбайт (85%)
Библиотека кодирования : XviD 73

Аудио
Идентификатор : 1
Формат : AC-3
Формат/Информация : Audio Coding 3
Коммерческое название : Dolby Digital
Идентификатор кодека : 2000
Продолжительность : 40 м. 9 с.
Вид битрейта : Постоянный
Битрейт : 192 Кбит/сек
Каналы : 2 канала
ChannelLayout : L R
Частота : 48,0 КГц
Частота кадров : 31,250 кадров/сек (1536 SPF)
Битовая глубина : 16 бит
Метод сжатия : С потерями
Размер потока : 55,1 Мбайт (11%)
Выравнивание : Разделение по промежуткам
ServiceKind/String : Complete Main

Внимание! Раздача ведётся путём добавления новых серий; при каждом добавлении создfётся новый торрент. Чтобы начать докачку новой серии, пользователям необходимо сделать следующее: (1) остановить скачивание, (2) удалить старый торрент у себя из клиента (старые серии удалять не надо), (3) скачать новый торрент и запустить его у себя в клиенте вместо старого, при этом указать клиенту путь в старую папку куда и должно происходить скачивание новых серий.

Ваш клиент при этом должен произвести хеширование (проверку) старой папки (если не производит сам - помогите ему сделать это), и будет докачивать только те серии которых у вас ещё нет. Старые серии при этом не удаляются, а продолжают раздаваться!

Eсли вы уже удалили старые серии, то предотвратить повторную закачку старых серий можно, отжав галочку в соответсвующих местах при запуске нового торрента.
piratbit.pw



Скачать Условный мент через торрент https://i90.fastpic.ru/big/2019/1014/28/b81fe807591b4b5862fbbf1adf1c2528.jpg Скачать фильм Условный мент через торрент бесплантно в хорошем качестве Описание: Одновременно в Петербург приезжают бывший опер Дмитрий Рыжов, отсидевший в колонии за превышение полномочий, и капитан полиции ... 7.1 10 7
Торрент: Зарегистрирован [2019-11-15 16:24] · скачан: 9 раз
Статус: √ проверено
Размер: 9.85 GB
Как cкачать? Как скачать Условный мент через торрент | qTorrent

% Раздел Тема Автор DL S | L
Наши сериалы [ 10.85 GB ] Условный мент / Охта / Сезон: 1 / Серии: 1-21 из 24 [2019 WEBRip-AVC] bober100 Скачать
2 | 3
Наши сериалы [ 10.65 GB ] Условный мент / Охта / Сезон: 1 / Серии: 1-20 из 24 [2019 WEB-DL 720p] bober100 Скачать
3 | 0
Наши сериалы [ 14.38 GB ] Условный мент / Охта / Сезон: 1 / Серии: 1-19 из 24 [2019 WEB-DL 1080p] bober100 Скачать
2 | 0
Наши сериалы [ 11.03 GB ] Условный мент / Охта / Сезон: 1 / Серии: 1-22 из 24 [2019 SATRip] bober100 Скачать
3 | 2


>> Регистрируемся здесь <<






Отзывы и комментарии о схеме читаем и пишем здесь: ---> Отзывы и комментарии о схеме

Новые благодарочки в телеграм довольных пользователей:
скриншот   скриншот   скриншот   скриншот   скриншот
    Дорогой пользователь! Огромная просьба, поблагодарите релизера, оцените раздачу и оставьте свои комментарий, если Вы скачали Условный мент через торрент бесплатно! Внесите свою лепту в развитие PiratBit!
    Комментировать посты могут только пользователи прошедшие не сложную регистрацию
    Показать сообщения:    

    Условный мент через торрент
    Скачать бесплатно Условный мент
    Условный мент скачать торрент
    Условный мент смотреть онлайн
    Cкачать фильм Условный мент бесплатно
    Условный мент скачать торрент в хорошем качестве
    Условный мент смотреть онлайн бесплатно в хорошем качестве


    Вы не можете начинать темы
    Вы не можете отвечать на сообщения
    Вы не можете редактировать свои сообщения
    Вы не можете удалять свои сообщения
    Вы не можете голосовать в опросах
    Вы не можете прикреплять файлы к сообщениям
    Вы можете скачивать файлы