1 сезон

1 сезон

iTunes

1

КиноПоиск HD

Кинопоиск HD

iTunes

13

1 сезон

RePack

30

Новинка

ВАЖНО

ИГРА 18+

pack

RePack

MK11
pack

Легкие деньги

RePack

jed

RePack

fifa19

RePack

RDR2

RePack

NEED FOR SPEED™ PAYBACK

4 сезон

9 сезон

Бесстыжие 9 сезон

Все сериалы

все сериалы на PB.wtf

RePack

FAR CRY 5
  
Magnet ссылка

Кобра / Cobra (Джордж Пан Косматос) [1986 г., боевик, криминал, триллер, BDRip] 4xAVO (Дохалов, Горчаков, Володарский, Пучков) piratbit.pw

Кобра через торрент piratbit.pw

Размер: 1.89 GB | Добавлен: 1 год 6 мес. назад | Торрент скачан:17 раз
Скачать  

14-10-2019 20:06 Кобра Скачать торрент  

Кобра / Cobra
Год выпуска: 1986

Страна: США

Жанр: Боевик, криминал, триллер

Продолжительность: 01:27:04

Перевод: Авторский (одноголосый)

Режиссер: Джордж Пан Косматос

rating

В ролях: Сильвестр Сталлоне, Бриджитт Нильсен, Рени Сантони, Эндрю Робинсон, Брайан Томпсон, Джон Херцфелд, Ли Гарлингтон, Арт ЛаФлёр, Марко Родригес, Росс Ст. Филлип, Вэл Эйвери, Дэвид Раш, Джон Хок, Ник Анджотти, Нина Аксельрод, Джо Бонни, Брэд Бови, Кевин Бреслин, Роджер Аарон Браун, Джон Кехилл, Малик Картер, Луиз Каире Кларк

Описание: Он — «Кобра» — штурмовой отряд полиции из одного человека, ему достаётся кровавая работёнка, за которую никто не хочет (или не осмеливается) взяться. Он выходит на след убийцы, за которым целая армия преступников-маньяков, стремящихся уничтожить свидетельницу их кровавой вакханалии. Но, к счастью, она попадает под защиту «Кобры».
Качество: BDRip
Формат: AVI
Видео: XviD, 1994 Кбит/с, 720x400
Аудио#1: Русский, AC3, 6 ch, 384 Кбит/с - Дохалов
Аудио#2: Русский, AC3, 6 ch, 448 Кбит/с - Горчаков
Аудио#3: Русский, MP3, 2 ch, 128 Кбит/с - Володарский
Аудио#4: Русский, MP3, 2 ch, 128 Кбит/с - Пучков
идео
Идентификатор : 0
Формат : MPEG-4 Visual
Профиль формата : Advanced Simple@L5
Настройки формата : BVOP2 / Custom Matrix
Параметр BVOP формата : 2
Параметр QPel формата : Нет
Параметр GMC формата : Без точки перехода
Параметр матрицы формата : Выборочная
Идентификатор кодека : XVID
Идентификатор кодека/Подсказка : XviD
Продолжительность : 1 ч. 27 м.
Битрейт : 1994 Кбит/сек
Ширина : 720 пикселей
Высота : 400 пикселей
Соотношение сторон : 16:9
Частота кадров : 23,976 (24000/1001) кадра/сек
Цветовое пространство : YUV
Субдискретизация насыщенности : 4:2:0
Битовая глубина : 8 бит
Тип развёртки : Прогрессивная
Метод сжатия : С потерями
Бит/(Пиксели*Кадры) : 0.289
Размер потока : 1,21 Гбайт (64%)
Библиотека кодирования : XviD 73

Аудио #1
Идентификатор : 1
Формат : AC-3
Формат/Информация : Audio Coding 3
Коммерческое название : Dolby Digital
Идентификатор кодека : 2000
Продолжительность : 1 ч. 27 м.
Вид битрейта : Постоянный
Битрейт : 384 Кбит/сек
Каналы : 6 каналов
ChannelLayout : L R C LFE Ls Rs
Частота : 48,0 КГц
Частота кадров : 31,250 кадров/сек (1536 SPF)
Битовая глубина : 16 бит
Метод сжатия : С потерями
Размер потока : 239 Мбайт (12%)
Выравнивание : Разделение по промежуткам
Продолжительность промежутка : 42 мс. (1,00 видеокадр)
Время предзагрузки промежутка : 500 мс.
ServiceKind/String : Complete Main

Аудио #2
Идентификатор : 2
Формат : AC-3
Формат/Информация : Audio Coding 3
Коммерческое название : Dolby Digital
Идентификатор кодека : 2000
Продолжительность : 1 ч. 27 м.
Вид битрейта : Постоянный
Битрейт : 448 Кбит/сек
Каналы : 6 каналов
ChannelLayout : L R C LFE Ls Rs
Частота : 48,0 КГц
Частота кадров : 31,250 кадров/сек (1536 SPF)
Битовая глубина : 16 бит
Метод сжатия : С потерями
Размер потока : 279 Мбайт (14%)
Выравнивание : Разделение по промежуткам
Продолжительность промежутка : 42 мс. (1,00 видеокадр)
Время предзагрузки промежутка : 500 мс.
ServiceKind/String : Complete Main

Аудио #3
Идентификатор : 3
Формат : MPEG Audio
Версия формата : Version 1
Профиль формата : Layer 3
Идентификатор кодека : 55
Идентификатор кодека/Подсказка : MP3
Продолжительность : 1 ч. 27 м.
Вид битрейта : Постоянный
Битрейт : 128 Кбит/сек
Каналы : 2 канала
Частота : 48,0 КГц
Частота кадров : 41,667 кадра/сек (1152 SPF)
Метод сжатия : С потерями
Размер потока : 79,7 Мбайт (4%)
Выравнивание : Соединение по промежуткам
Продолжительность промежутка : 42 мс. (1,00 видеокадр)
Время предзагрузки промежутка : 504 мс.
Библиотека кодирования : LAME3.99r
Настройки программы : -m s -V 4 -q 2 -lowpass 17 -b 128

Аудио #4
Идентификатор : 4
Формат : MPEG Audio
Версия формата : Version 1
Профиль формата : Layer 3
Настройки формата : Joint stereo / MS Stereo
Идентификатор кодека : 55
Идентификатор кодека/Подсказка : MP3
Продолжительность : 1 ч. 27 м.
Вид битрейта : Постоянный
Битрейт : 128 Кбит/сек
Каналы : 2 канала
Частота : 48,0 КГц
Частота кадров : 41,667 кадра/сек (1152 SPF)
Метод сжатия : С потерями
Размер потока : 79,7 Мбайт (4%)
Выравнивание : Соединение по промежуткам
Продолжительность промежутка : 42 мс. (1,00 видеокадр)
Время предзагрузки промежутка : 504 мс.
Библиотека кодирования : LAME3.98r
Настройки программы : -m j -V 4 -q 2 -lowpass 17 -b 128

скриншот   скриншот   скриншот   скриншот   скриншот  

piratbit.pw



Скачать Кобра через торрент https://pic1.kartinco.top/images/12/xda3x.jpg Скачать фильм Кобра через торрент бесплантно в хорошем качестве Описание: Он — «Кобра» — штурмовой отряд полиции из одного человека, ему достаётся кровавая работёнка, за которую никто не хочет (или не ... 10 10 1
Торрент: Зарегистрирован [2019-10-14 20:06] · скачан: 17 раз
Статус: √ проверено
Размер: 1.89 GB
Как cкачать? Как скачать Кобра через торрент | UTorrent

% Раздел Тема Автор DL S | L
Зарубежные сериалы [ 36.33 GB ] Кобра Кай / Cobra Kai / Сезон: 3 / Серии: 1-10 из 10 [2021 WEBRip 1080p] 3xMVO [VSI Moscow / Netflix AlexFilm TVShows] bober100 Скачать
1 | 0
Зарубежные сериалы [ 4.74 GB ] Кобра-Кай / Cobra Kai / Сезон: 3 / Серии: 1-10 из 10 [2020 WEBRip] [MVO] killermax2013 Скачать
4 | 1
Зарубежные сериалы [ 34.36 GB ] Кобра Кай / Cobra Kai / Сезон: 3 / Серии: 1-10 из 10 [2021 WEBRip 1080p] MVO [AlexFilm] bober100 Скачать
2 | 1
Зарубежные сериалы [ 18.62 GB ] Кобра Кай / Cobra Kai / Сезон: 3 / Серии: 1-10 из 10 [2021 WEBRip 720p] MVO [AlexFilm] bober100 Скачать
1 | 1
Фильмы с авторской озвучкой [ 4.34 GB ] Кобра / Cobra [1986 LDRip] [Fullscreen] 6x [AVO] + + [MVO] killermax2013 Скачать
2 | 0
Фильмы [HD 720p, 1080p] (Хороший звук DUB, MVO) [ 8.95 GB ] Кобра / Cobra [1986 BDRip-HEVC 1080p] 2хDUB + 3хMVO + 7xAVO RealOldGamer Скачать
2 | 0
Зарубежные сериалы [ 18.73 GB ] Кобра Кай / Cobra Kai / Сезон: 1 / Серии: 1-10 из 10 [2018 WEB-DL 1080p] MVO [VSI Moscow] bober100 Скачать
1 | 0

28-11-2019 20:33  

Отключить всю рекламу на сайте


    Дорогой пользователь! Огромная просьба, поблагодарите релизера, оцените раздачу и оставьте свои комментарий, если Вы скачали Кобра через торрент бесплатно! Внесите свою лепту в развитие PiratBit!
    Комментировать посты могут только пользователи прошедшие не сложную регистрацию
    Показать сообщения:    

    Кобра через торрент
    Скачать бесплатно Кобра
    Кобра скачать торрент
    Кобра смотреть онлайн
    Cкачать фильм Кобра бесплатно
    Кобра скачать торрент в хорошем качестве
    Кобра смотреть онлайн бесплатно в хорошем качестве


    Вы не можете начинать темы
    Вы не можете отвечать на сообщения
    Вы не можете редактировать свои сообщения
    Вы не можете удалять свои сообщения
    Вы не можете голосовать в опросах
    Вы не можете прикреплять файлы к сообщениям
    Вы можете скачивать файлы