Ссылка на приватное зеркало всего за 1$. Внимание количество ограничено!!!

iTunes

iTunes

iTunes

1

iTunes

iTunes

iTunes

WEBRip

iTunes

30
pack

$ от Little Big

ВАЖНО

!!Акция!!

Alien_RageХит недели

RePack

Resident Evil 21

ИГРА 18+

pack

RePack

jed

!!Акция!!

Alien_Rage

RePack

fifa19

RePack

Assassins Creed: Odyssey

RePack

NEED FOR SPEED™ PAYBACK

4 сезон

9 сезон

Бесстыжие 9 сезон

Все сериалы

все сериалы на PB.wtf

RePack

FAR CRY 5
  

Хороший доктор / The Good Doctor / Сезон: 3 / Серии: 1-20 из 20 (Майк Листо, Майкл Патрик Джэнн, Эллисон Лидди) [2019, Драма, WEB-DL 1080p] MVO [TVShows] piratbit.pw

Хороший доктор через торрент piratbit.pw

Размер: 43.59 GB | Добавлен: 2 мес. 25 д. назад | Торрент скачан:2 раза
Скачать  

11-10-2019 02:10 Хороший доктор Скачать торрент  

Хороший доктор | The Good Doctor
«***»
Год выпуска: 2019
Страна: США
Жанр: Драма
Продолжительность: ~00:43:00
Перевод: Профессиональный (многоголосый закадровый) | TVShows
Субтитры: Английские

Режиссёр: Майк Листо, Майкл Патрик Джэнн, Эллисон Лидди

В ролях: Фиона Губелманн, Кристина Чанг, Ричард Шифф, Хилл Харпер, Тэмлин Томита, Антония Томас, Николас Гонсалес, Фредди Хаймор, Уилл Юн Ли, Пейдж Спара

Описание: История молодого талантливого врача с синдромом саванта, обладающего уникальными способностями — невероятной памятью и фантастической чувствительностью к проблемам, вспыхивающим внутри человеческого организма. Герой становится блестящим хирургом, несмотря на это, в личностном плане его развитие соответствует уровню десятилетнего ребёнка.



Качество: WEB-DL 1080p
Контейнер: MKV

Видео: MPEG-4 AVC, 1920x1080, 16:9, 23.976 fps, ~5703 kbps
Аудио 1: Русский, AC3, 48 kHz, 6 ch, 384 kbps
Аудио 2: Английский, E-AC3, 48 kHz, 6 ch, 640 kbps


Реклама: Отсутствует
General
Unique ID : 273327710501514317275541625160708803672 (0xCDA100920D273A653DD2DC0B10024C58)
Complete name : D:\The.Good.Doctor.S03E01.1080p.TVShows.mkv
Format : Matroska
Format version : Version 4
File size : 2.03 GiB
Duration : 43 min 10 s
Overall bit rate : 6 729 kb/s
Encoded date : UTC 2019-10-03 16:36:58
Writing application : mkvmerge v33.1.0 ('Primrose') 64-bit
Writing library : libebml v1.3.7 + libmatroska v1.5.0

Video
ID : 1
Format : AVC
Format/Info : Advanced Video Codec
Format profile : High@L4
Format settings : CABAC / 4 Ref Frames
Format settings, CABAC : Yes
Format settings, Reference frames : 4 frames
Codec ID : V_MPEG4/ISO/AVC
Duration : 43 min 10 s
Bit rate mode : Constant
Bit rate : 5 703 kb/s
Nominal bit rate : 10 000 kb/s
Width : 1 920 pixels
Height : 1 080 pixels
Display aspect ratio : 16:9
Frame rate mode : Constant
Frame rate : 23.976 (24000/1001) FPS
Color space : YUV
Chroma subsampling : 4:2:0
Bit depth : 8 bits
Scan type : Progressive
Bits/(Pixel*Frame) : 0.115
Stream size : 1.72 GiB (85%)
Default : Yes
Forced : No
Color range : Limited
Color primaries : BT.709
Transfer characteristics : BT.709
Matrix coefficients : BT.709

Audio #1
ID : 2
Format : AC-3
Format/Info : Audio Coding 3
Commercial name : Dolby Digital
Codec ID : A_AC3
Duration : 43 min 10 s
Bit rate mode : Constant
Bit rate : 384 kb/s
Channel(s) : 6 channels
Channel layout : L R C LFE Ls Rs
Sampling rate : 48.0 kHz
Frame rate : 31.250 FPS (1536 SPF)
Compression mode : Lossy
Stream size : 119 MiB (6%)
Title : TVShows
Language : Russian
Service kind : Complete Main
Default : Yes
Forced : Yes

Audio #2
ID : 3
Format : E-AC-3
Format/Info : Enhanced AC-3
Commercial name : Dolby Digital Plus
Codec ID : A_EAC3
Duration : 43 min 10 s
Bit rate mode : Constant
Bit rate : 640 kb/s
Channel(s) : 6 channels
Channel layout : L R C LFE Ls Rs
Sampling rate : 48.0 kHz
Frame rate : 31.250 FPS (1536 SPF)
Compression mode : Lossy
Stream size : 198 MiB (10%)
Title : Original
Language : English
Service kind : Complete Main
Default : No
Forced : No

Text
ID : 4
Format : UTF-8
Codec ID : S_TEXT/UTF8
Codec ID/Info : UTF-8 Plain Text
Duration : 42 min 34 s
Bit rate : 79 b/s
Count of elements : 860
Stream size : 24.7 KiB (0%)
Title : English
Language : English
Default : No
Forced : No
скриншот  скриншот  скриншот  скриншот  
При каждом добавлении создаётся новый торрент. Чтобы начать докачку новой серии, пользователям необходимо сделать следующее:

остановить скачивание,
удалить старый торрент у себя из клиента (старые серии удалять не надо),
скачать новый торрент и запустить его у себя в клиенте вместо старого, при этом указать клиенту путь в старую папку куда и должно происходить скачивание новых серий.

Ваш клиент при этом должен произвести хеширование (проверку) старой папки (если не производит сам - помогите ему сделать это), и будет докачивать только те серии которых у вас ещё нет. Старые серии при этом не удаляются, а продолжают раздаваться!
Eсли вы уже удалили старые серии, то предотвратить повторную закачку старых серий можно, отжав галочку в соответствующих местах при запуске нового торрента. По возможности, желательно не удалять старые серии как можно дольше чтобы релизёр не столько продолжал раздавать старые серии, а смог сконцентрироваться на новых.
piratbit.pw



Скачать Хороший доктор через торрент https://i3.imageban.ru/out/2019/09/27/4b38276f3ae95bd61fdcc4e1b405a27a.png Скачать фильм Хороший доктор через торрент бесплантно в хорошем качестве Описание: История молодого талантливого врача с синдромом саванта, обладающего уникальными способностями — невероятной памятью и ... 10 10 2
Info! Золотая раздача, скачанное не засчитывается.
Торрент: Зарегистрирован [2020-05-21 20:13] · скачан: 2 раз
Статус: √ проверено
Размер: 43.59 GB
Как cкачать? Как скачать Хороший доктор через торрент | qTorrent

% Раздел Тема Автор DL S | L
Зарубежные сериалы [ 14.7 GB ] Хороший доктор / The Good Doctor / Сезон: 3 / Серии: 1-13 из 20 [2019 WEB-DL 720p] MVO [TVShows] bober100 Скачать
1 | 0
Зарубежные сериалы [ 41.42 GB ] Хороший доктор / The Good Doctor / Сезон: 3 / Серии: 1-20 из 20 [2019 WEB-DL 1080p] MVO [Lostfilm] bober100 Скачать
2 | 1
Зарубежные сериалы [ 10.63 GB ] Хороший доктор / The Good Doctor / Сезон: 3 / Серии: 1-20 из 20 [2019 WEB-DLRip] MVO [LostFilm] bober100 Скачать
6 | 2

28-11-2019 20:33  

Отключить всю рекламу на сайте

    Дорогой пользователь! Огромная просьба, поблагодарите релизера, оцените раздачу и оставьте свои комментарий, если Вы скачали Хороший доктор через торрент бесплатно! Внесите свою лепту в развитие PiratBit!
    Комментировать посты могут только пользователи прошедшие не сложную регистрацию
    Показать сообщения:    

    Хороший доктор через торрент
    Скачать бесплатно Хороший доктор
    Хороший доктор скачать торрент
    Хороший доктор смотреть онлайн
    Cкачать фильм Хороший доктор бесплатно
    Хороший доктор скачать торрент в хорошем качестве
    Хороший доктор смотреть онлайн бесплатно в хорошем качестве


    Вы не можете начинать темы
    Вы не можете отвечать на сообщения
    Вы не можете редактировать свои сообщения
    Вы не можете удалять свои сообщения
    Вы не можете голосовать в опросах
    Вы не можете прикреплять файлы к сообщениям
    Вы можете скачивать файлы