новый адрес пиратбит piratbit
Мега распродажа FORZA HORIZON 4 ULTIMATE+ВСЕ DLC+ОНЛАЙН всего за 499р. 349 руб. (супер цена). Внимание количество ограничено!!!

iTunes

1+1

iTunes

мы

iTunes

1

iTunes

Чернобыль

iTunes

Ральф против интернета

Лицензия

ПШазам

Лицензия

Игра престолов

Лицензия

30
pack

ВАЖНО

!!Акция!!

Alien_RageХит недели

RePack

Resident Evil 21

ИГРА 18+

pack

RePack

Metro:Exodus

!!Акция!!

Alien_Rage

RePack

fifa19

RePack

Assassins Creed: Odyssey

RePack

NEED FOR SPEED™ PAYBACK

3 сезон

9 сезон

Бесстыжие 9 сезон

Все сериалы

все сериалы на PB.wtf

RePack

FAR CRY 5
Ребята, катастрофически не хватает 1900р. для оплаты серверов за Октябрь (всвязи с блокировками трафик упал в 3 раза), 1-2р., выручайте.
  

Король Лев / The Lion King (Джон Фавро) [2019, мультфильм, мюзикл, драма, приключения, семейный, DVDRip-AVC] [ENG] piratbit.pw

Король Лев через торрент piratbit.pw

Качают: 2 [ 0 KB/s ]
Размер: 1.33 GB | Добавлен: 1 мес. 3 д. назад | Торрент скачан:33 раза
Скачать  

10-10-2019 13:05 Король Лев Скачать торрент  

Король Лев / The Lion King

Год выпуска: 2019
Страна: США
Жанр: мультфильм, мюзикл, драма, приключения, семейный
Продолжительность: 01:58:14
Перевод: Отсутствует! [английский оригинал]
Субтитры: отсутствуют

Режиссер: Джон Фавро

В ролях: Джеймс Эрл Джонс, Дональд Гловер, Чиветель Эджиофор, Джон Оливер, Джон Кани, Элфри Вудард, Джейдон Маккрэри, Шахади Райт Джозеф, Пенни Джонсон, Кигэн-Майкл Ки

Описание: История об отважном львенке по имени Симба. Знакомые с детства герои взрослеют, влюбляются, познают себя и окружающий мир, совершают ошибки и делают правильный выбор.

ratingскриншот  

Качество: DVDRip-AVC
Формат: MKV
Видео: h.264, 720x400, 1 300 kb/s
Аудио: AC3, 6 ch, 384 Кбит/с
General
Complete name : E:\Lion.King.2019.DVDRip.XviD.AC3.LLG\Lion.King.2019.DVDRip.XviD.AC3.LLG.mp4
Format : MPEG-4
Format profile : Base Media
Codec ID : isom (isom/iso2/avc1/mp41)
File size : 1.31 GiB
Duration : 1 h 58 min
Overall bit rate mode : Variable
Overall bit rate : 1 590 kb/s
Encoded date : UTC 2019-10-09 20:08:29
Tagged date : UTC 2019-10-09 20:08:29
Writing application : Lavf57.83.100

Video
ID : 1
Format : AVC
Format/Info : Advanced Video Codec
Format profile : Main@L3
Format settings : CABAC / 1 Ref Frames
Format settings, CABAC : Yes
Format settings, RefFrames : 1 frame
Codec ID : avc1
Codec ID/Info : Advanced Video Coding
Duration : 1 h 58 min
Bit rate mode : Variable
Bit rate : 1 202 kb/s
Maximum bit rate : 3 600 kb/s
Width : 720 pixels
Height : 400 pixels
Display aspect ratio : 16:9
Frame rate mode : Constant
Frame rate : 23.976 (23976/1000) FPS
Color space : YUV
Chroma subsampling : 4:2:0
Bit depth : 8 bits
Scan type : Progressive
Bits/(Pixel*Frame) : 0.174
Stream size : 1 017 MiB (76%)
Encoded date : UTC 2019-10-09 20:08:29
Tagged date : UTC 2019-10-09 20:08:29

Audio
ID : 2
Format : AC-3
Format/Info : Audio Coding 3
Format settings, Endianness : Big
Codec ID : ac-3
Duration : 1 h 58 min
Bit rate mode : Constant
Bit rate : 384 kb/s
Channel(s) : 6 channels
Channel positions : Front: L C R, Side: L R, LFE
Sampling rate : 48.0 kHz
Frame rate : 31.250 FPS (1536 SPF)
Bit depth : 16 bits
Compression mode : Lossy
Stream size : 325 MiB (24%)
Title : Surround
Language : English
Service kind : Complete Main
Default : Yes
Alternate group : 1
Encoded date : UTC 2019-10-09 20:08:29
Tagged date : UTC 2019-10-09 20:08:29
скриншот   скриншот   скриншот   скриншот   скриншот  

piratbit.pw



Скачать Король Лев через торрент https://d.radikal.ru/d08/1907/f0/7a86f778b6ff.jpg Скачать фильм Король Лев через торрент бесплантно в хорошем качестве Описание: История об отважном львенке по имени Симба. Знакомые с детства герои взрослеют, влюбляются, познают себя и окружающий мир, ... 8.1 10 9
Торрент: Зарегистрирован [2019-10-10 13:05] · скачан: 33 раз
Статус: ∑ поглощено
Размер: 1.33 GB
Как cкачать? Как скачать Король Лев через торрент | qTorrent

% Раздел Тема Автор DL S | L
3D Мультфильмы [ 11.33 GB ] Король Лев 3Д / The Lion King 3D [2019 мультфильм мюзикл BDRip 1080p] [Half OverUnder] DUB bober100 Скачать
7 | 0
3D Мультфильмы [ 21.13 GB ] Король Лев в 3Д / The Lion King 3D [2019 Мультфильм мюзикл ремейк BDRip 1080p] OverUnder / Вертикальная стереопара () serega768 Скачать
1 | 0
Зарубежные Мультфильмы (BDRip 1080p, 720p, Blu-ray, BD-Remux) [ 39.23 GB ] Король Лев / The Lion King [2019 мультфильм мюзикл BD Remux 1080p] [2D/3D] bober100 Скачать
5 | 0
Иностранные мультфильмы [ 1.41 GB ] Король Лев / The Lion King [2019 мультфильм мюзикл BDRip] - Twi7ter Скачать
17 | 0
Ultra HD (UHD: 2K, 4K, 8K) [ 33.13 GB ] Король Лев / The Lion King [2019 мультфильм мюзикл UHD BDRip 2160p] [SDR] bober100 Скачать
4 | 1
Зарубежные Мультфильмы (BDRip 1080p, 720p, Blu-ray, BD-Remux) [ 4.5 GB ] Король Лев / The Lion King [2019 мультфильм мюзикл BDRip 720p] - ExKinoRay Enigma2010 Скачать
227 | 11
Ultra HD (UHD: 2K, 4K, 8K) [ 23.43 GB ] Король Лев / The Lion King [2019 мультфильм мюзикл UHD BDRip 2160p] sheker187 Скачать
8 | 0


>> Регистрируемся здесь <<






Отзывы и комментарии о схеме читаем и пишем здесь: ---> Отзывы и комментарии о схеме

Новые благодарочки в телеграм довольных пользователей:
скриншот   скриншот   скриншот   скриншот   скриншот

08-11-2019 08:58 Король Лев Скачать торрент  

Топик был перенесен из форума Фильмы без перевода в форум Для поглощённых раздач

Причина переноса: https://pb.wtf/tracker/?ss=%D0%9A%D0%BE%D1%80%D0%BE...D0%B2%20#results
bober100piratbit.pw



    Дорогой пользователь! Огромная просьба, поблагодарите релизера, оцените раздачу и оставьте свои комментарий, если Вы скачали Король Лев через торрент бесплатно! Внесите свою лепту в развитие PiratBit!
    Комментировать посты могут только пользователи прошедшие не сложную регистрацию
    Показать сообщения:    

    Король Лев через торрент
    Скачать бесплатно Король Лев
    Король Лев скачать торрент
    Король Лев смотреть онлайн
    Cкачать фильм Король Лев бесплатно
    Король Лев скачать торрент в хорошем качестве
    Король Лев смотреть онлайн бесплатно в хорошем качестве


    Вы не можете начинать темы
    Вы не можете отвечать на сообщения
    Вы не можете редактировать свои сообщения
    Вы не можете удалять свои сообщения
    Вы не можете голосовать в опросах
    Вы не можете прикреплять файлы к сообщениям
    Вы можете скачивать файлы