Ссылка на приватное зеркало всего за 1$. Внимание количество ограничено!!!

iTunes

iTunes

iTunes

1

iTunes

iTunes

iTunes

WEBRip

iTunes

30
pack

$ от Little Big

ВАЖНО

!!Акция!!

Alien_RageХит недели

RePack

Resident Evil 21

ИГРА 18+

pack

RePack

jed

!!Акция!!

Alien_Rage

RePack

fifa19

RePack

Assassins Creed: Odyssey

RePack

NEED FOR SPEED™ PAYBACK

4 сезон

9 сезон

Бесстыжие 9 сезон

Все сериалы

все сериалы на PB.wtf

RePack

FAR CRY 5
  

Бэтвумен / Batwoman / Сезон: 1 / Серия: 1-20 из 20 (Маркос Сига, Лаура Белси) [2019, фантастика, боевик, драма, криминал, приключения, WEB-DL 1080p] MVO [Lostfilm] piratbit.pw

Бэтвумен через торрент piratbit.pw

Размер: 47.7 GB | Добавлен: 2 мес. 16 д. назад | Торрент скачан:5 раз
Скачать  

10-10-2019 12:46 Бэтвумен Скачать торрент  

Бэтвумен | Batwoman

Год выпуска: 2019
Страна: США
Жанр: фантастика, боевик, драма, криминал, приключения
Продолжительность: ~ 00:44:00
Перевод: Профессиональный (многоголосый закадровый) | Lostfilm
Субтитры: Английские

Режиссёр: Маркос Сига, Лаура Белси

В ролях: Камрус Джонсон, Руби Роуз, Элизабет Энвейс, Рэйчел Скарстен, Дугрей Скотт, Николь Кан, Сэм Литтлфилд, Брендон Заб, Мэттью В. Аллен

Описание: Кэти Кейн — дочь владельца частной охранной компании, которую с позором выгнали из армии. Она возвращается в родной Готэм, лишенный защиты Бэтмена — Тёмный рыцарь пропал без следа три года назад. Пока в городе орудует жестокая банда, Кэти при поддержке гениального Люка Фокса вынуждена взять на себя защиту невинных и стать Бэтвумен.

rating

Качество: WEB-DL 1080p
Формат: MKV

Видео: H.264/AVC, 1920 x 960 (2:1), 23.976 fps, ~6816 kbps, ~0.154 bit/pixel
Аудио №1: Русский E-AC3/DD+ 5.1, 48 kHz, 640 kbps
Аудио №2: Английский E-AC3/DD+ 5.1, 48 kHz, 640 kbps
скриншот  скриншот  скриншот  скриншот  скриншот  

Общее
Уникальный идентификатор : 337358971752907605829117046014615403190 (0xFDCCF97D767DAC85AC8C017EC57ABAB6)
Полное имя : C:\Batwoman.2019.S01.1080p.WEB-DL.RUS.LF.EniaHD\Batwoman.S01E01.1080p.WEB-DL.RUS.LF.EniaHD.mkv
Формат : Matroska
Версия формата : Version 4
Размер файла : 2,40 Гбайт
Продолжительность : 42 м. 25 с.
Общий поток : 8099 Кбит/сек
Название фильма : Batwoman, Season 1 / Pilot
Трек/Положение : 1
Трек/Всего : 13
Описание : Armed with a passion for social justice and a flair for speaking her mind, Kate Kane soars through the shadowed streets of Gotham as Batwoman in the series premiere.
Дата выпуска : 2019-10-06T07:00:00Z
Программа кодирования : mkvmerge v42.0.0 ('Overtime') 64-bit
Библиотека кодирования : libebml v1.3.10 + libmatroska v1.5.2
Обложка : Yes
Attachments : small_cover.jpg / cover.jpg

Видео
Идентификатор : 1
Формат : AVC
Формат/Информация : Advanced Video Codec
Профиль формата : High@L4.1
Настройки формата : CABAC / 4 Ref Frames
Параметр CABAC формата : Да
Параметр RefFrames формата : 4 кадра
Идентификатор кодека : V_MPEG4/ISO/AVC
Продолжительность : 42 м. 25 с.
Битрейт : 6816 Кбит/сек
Ширина : 1920 пикселей
Высота : 960 пикселей
Соотношение сторон : 2,000
Режим частоты кадров : Постоянный
Частота кадров : 23,976 (24000/1001) кадра/сек
Цветовое пространство : YUV
Субдискретизация насыщенности : 4:2:0
Битовая глубина : 8 бит
Тип развёртки : Прогрессивная
Бит/(Пиксели*Кадры) : 0.154
Размер потока : 2,02 Гбайт (84%)
Язык : English
Default : Да
Forced : Нет
Цветовой диапазон : Limited
Основные цвета : BT.709
Характеристики трансфера : BT.709
Коэффициенты матрицы : BT.709

Аудио #1
Идентификатор : 2
Формат : E-AC-3
Формат/Информация : Enhanced AC-3
Коммерческое название : Dolby Digital Plus
Идентификатор кодека : A_EAC3
Продолжительность : 42 м. 25 с.
Вид битрейта : Постоянный
Битрейт : 640 Кбит/сек
Каналы : 6 каналов
ChannelLayout : L R C LFE Ls Rs
Частота : 48,0 КГц
Частота кадров : 31,250 кадров/сек (1536 SPF)
Метод сжатия : С потерями
Размер потока : 194 Мбайт (8%)
Заголовок : E-AC3 5.1 @ 640kbps - MVO, Lostfilm
Язык : Russian
ServiceKind/String : Complete Main
Default : Да
Forced : Нет
Дата выпуска : 2019-10-09T22:08:52Z

Аудио #2
Идентификатор : 3
Формат : E-AC-3
Формат/Информация : Enhanced AC-3
Коммерческое название : Dolby Digital Plus
Идентификатор кодека : A_EAC3
Продолжительность : 42 м. 25 с.
Вид битрейта : Постоянный
Битрейт : 640 Кбит/сек
Каналы : 6 каналов
ChannelLayout : L R C LFE Ls Rs
Частота : 48,0 КГц
Частота кадров : 31,250 кадров/сек (1536 SPF)
Метод сжатия : С потерями
Размер потока : 194 Мбайт (8%)
Заголовок : E-AC3 5.1 @ 640kbps - Original
Язык : English
ServiceKind/String : Complete Main
Default : Нет
Forced : Нет

Текст
Идентификатор : 4
Формат : UTF-8
Идентификатор кодека : S_TEXT/UTF8
Идентификатор кодека/Информация : UTF-8 Plain Text
Продолжительность : 42 м. 8 с.
Битрейт : 63 бит/сек
ElementCount : 699
Размер потока : 19,6 Кбайт (0%)
Заголовок : SDH
Язык : English
Default : Нет
Forced : Нет

Когда раздача ведётся путём добавления новых серий, при каждом добавлении создётся новый торрент. Чтобы начать докачку новой серии, пользователям необходимо сделать следующее:
(1) остановить скачивание,
(2) удалить старый торрент у себя из клиента (старые серии удалять не надо),
(3) скачать новый торрент и запустить его у себя в клиенте вместо старого, при этом указать клиенту путь в старую папку, куда и должно происходить скачивание новых серий.
Ваш клиент при этом должен произвести хеширование (проверку) старой папки (если не производит сам - помогите ему сделать это), и будет докачивать только те серии, которых у вас ещё нет. Старые серии при этом не удаляются, а продолжают раздаваться!
Eсли вы уже удалили старые серии, то предотвратить повторную закачку старых серий можно, отжав галочку в соответсвующих местах при запуске нового торрента. По возможности, желательно не удалять старые серии как можно дольше, чтобы релизёр не столько продолжал раздавать старые серии, а смог сконцентрироваться на новых.
piratbit.pw



Скачать Бэтвумен через торрент https://img16.lostpic.net/2019/10/10/43719f3241b101d15851a71d4f59293b.jpg Скачать фильм Бэтвумен через торрент бесплантно в хорошем качестве Описание: Кэти Кейн — дочь владельца частной охранной компании, которую с позором выгнали из армии. Она возвращается в родной Готэм, ... 8 10 9
Info! Золотая раздача, скачанное не засчитывается.
Торрент: Зарегистрирован [2020-05-21 08:54] · скачан: 5 раз
Статус: √ проверено
Размер: 47.7 GB
Как cкачать? Как скачать Бэтвумен через торрент | qTorrent

% Раздел Тема Автор DL S | L
Зарубежные сериалы [ 14.8 GB ] Бэтвумен / Batwoman / Сезон: 1 / Серия: 1-14 из 22 [2019 WEB-DL 720p] DUB [DoubleRec.Imago] bober100 Скачать
1 | 0
Зарубежные сериалы [ 17.31 GB ] Бэтвумен / Batwoman / Сезон: 1 / Серии: 1-16 из 22 [2019 WEB-DL 720p] MVO [TVShows] bober100 Скачать
1 | 0
Зарубежные сериалы [ 32.02 GB ] Бэтвумен / Batwoman / Сезон: 1 / Серия: 1-14 из 22 [2019 WEB-DL 1080p] DUB [DoubleRec.Imago] bober100 Скачать
1 | 0
Зарубежные сериалы [ 46.04 GB ] Бэтвумен / Batwoman / Сезон: 1 / Серии: 1-20 из 20 [2019 WEB-DL 1080p] MVO [TVShows] bober100 Скачать
1 | 1
Зарубежные сериалы [ 21.89 GB ] Бэтвумен / Batwoman / Сезон: 1 / Серия: 1-20 из 20 [2019 WEB-DL 720p] MVO [Lostfilm] bober100 Скачать
1 | 0
Зарубежные сериалы [ 44.98 GB ] Бэтвумен / Batwoman / Сезон: 1 / Серия: 1-20 из 20 [2019 WEB-DL 1080p] MVO [Jaskier] bober100 Скачать
1 | 0
Зарубежные сериалы [ 20.38 GB ] Бэтвумен / Batwoman / Сезон: 1 / Серия: 1-20 из 20 [2019 WEB-DL 720p] MVO [Jaskier] bober100 Скачать
1 | 0


Последний раз редактировалось: bober100 (2020-05-21 08:54), всего редактировалось 6 раз(а)

28-11-2019 20:33  

Отключить всю рекламу на сайте

20-11-2019 13:17 Бэтвумен Скачать торрент  

Люди кто смотрит сериал? Как сериал то стоит смотреть?piratbit.pw



30-04-2020 20:01 Бэтвумен Скачать торрент  

если тока больше нечего смотреть..для детишек и лесбиянок
piratbit.pw



    Дорогой пользователь! Огромная просьба, поблагодарите релизера, оцените раздачу и оставьте свои комментарий, если Вы скачали Бэтвумен через торрент бесплатно! Внесите свою лепту в развитие PiratBit!
    Комментировать посты могут только пользователи прошедшие не сложную регистрацию
    Показать сообщения:    

    Бэтвумен через торрент
    Скачать бесплатно Бэтвумен
    Бэтвумен скачать торрент
    Бэтвумен смотреть онлайн
    Cкачать фильм Бэтвумен бесплатно
    Бэтвумен скачать торрент в хорошем качестве
    Бэтвумен смотреть онлайн бесплатно в хорошем качестве


    Вы не можете начинать темы
    Вы не можете отвечать на сообщения
    Вы не можете редактировать свои сообщения
    Вы не можете удалять свои сообщения
    Вы не можете голосовать в опросах
    Вы не можете прикреплять файлы к сообщениям
    Вы можете скачивать файлы