новый адрес
Мега распродажа FORZA HORIZON 4 ULTIMATE+ВСЕ DLC+ОНЛАЙН всего за 499р. 349 руб. (супер цена). Внимание количество ограничено!!!

iTunes

1+1

iTunes

мы

iTunes

1

iTunes

Чернобыль

iTunes

Ральф против интернета

Лицензия

ПШазам

Лицензия

Игра престолов

Лицензия

30
pack

ВАЖНО

!!Акция!!

Alien_RageХит недели

RePack

Resident Evil 21

ИГРА 18+

pack

RePack

Metro:Exodus

!!Акция!!

Alien_Rage

RePack

fifa19

RePack

Assassins Creed: Odyssey

RePack

NEED FOR SPEED™ PAYBACK

3 сезон

9 сезон

Бесстыжие 9 сезон

Все сериалы

все сериалы на PB.wtf

RePack

FAR CRY 5
Ребята, катастрофически не хватает 1900р. для оплаты серверов за Октябрь (всвязи с блокировками трафик упал в 3 раза), 1-2р., выручайте.
  

Достать коротышку / Get Shorty / Сезон: 3 / Серии: 1-5 из 10 (Адам Аркин, Дэниэл Эттиэс, Эдвард Бьянчи) [2019, драма, комедия, WEB-DL 720p] MVO [TVShows] piratbit.pw

Достать коротышку через торрент piratbit.pw

Качают: 2 [ 0 KB/s ]
Размер: 8.55 GB | Добавлен: 9 д. назад | Торрент скачан:3 раза
Скачать  

10-10-2019 12:30 Достать коротышку Скачать торрент  

Достать коротышку / Get Shorty Год выпуска: 2019
Страна: США
Жанр: Комедия, криминал
Продолжительность: ~ 00:54:00
Перевод: Профессиональный (многоголосый закадровый) | TVShows
Субтитры: Английские

Режиссёр: Адам Аркин, Дэниэл Эттиэс, Эдвард Бьянчи

В ролях: Крис О`Дауд, Рэй Романо, Джиллиан Вигмэн, Кристин Элиз, Люси Уолтерс, Кристоффер Полаха, Шон Бриджерс, Лора Каннингэм, Меган Стивенсон, Брэд Картер

Описание: Продолжение истории двух незадачливых гангстеров, которые решили, что самым удачным вложением денег мафии будет... собственный фильм! Когда в активе есть хитовый сценарий, толковый продюсер и щедрый инвестор - это уже потенциальный блокбастер! Особенно если никто не запрещает подкупать, шантажировать и устранять конкурентов.

rating

Качество: WEB-DL 720p
Контейнер: MKV

Видео: MPEG-4 AVC, ~ 3254 Кбит/с, 1280x720
Аудио #1: 48 kHz, AC3, 6 ch., 384 kbps | Rus
Аудио #2: 48 kHz, E-AC3, 6 ch., 640 kbps | Eng


Реклама: Отсутствует
Общее
Уникальный идентификатор : 114816828695679381749688130390426307290 (0x5660EAB6B6301DD6F3E91C55AB36CADA)
Полное имя : D:\Get.Shorty.S03.720p.TVShows\Get.Shorty.S03E01.720p.TVShows.mkv
Формат : Matroska
Версия формата : Version 4 / Version 2
Размер файла : 1,74 Гбайт
Продолжительность : 58 м. 18 с.
Общий поток : 4280 Кбит/сек
Название фильма : Get.Shorty.S03E01.720p.WEB.h264-CONVOY
Дата кодирования : UTC 2019-10-10 11:50:30
Программа кодирования : mkvmerge v33.1.0 ('Primrose') 64-bit
Библиотека кодирования : libebml v1.3.7 + libmatroska v1.5.0

Видео
Идентификатор : 1
Формат : AVC
Формат/Информация : Advanced Video Codec
Профиль формата : High@L3.1
Параметр CABAC формата : Да
Параметр RefFrames формата : 4 кадра
Идентификатор кодека : V_MPEG4/ISO/AVC
Продолжительность : 58 м. 18 с.
Вид битрейта : Постоянный
Битрейт : 3254 Кбит/сек
Номинальный битрейт : 6000 Кбит/сек
Ширина : 1280 пикселей
Высота : 720 пикселей
Соотношение сторон : 16:9
Режим частоты кадров : Постоянный
Частота кадров : 23,976 (24000/1001) кадра/сек
Цветовое пространство : YUV
Субдискретизация насыщенности : 4:2:0
Битовая глубина : 8 бит
Тип развёртки : Прогрессивная
Бит/(Пиксели*Кадры) : 0.147
Размер потока : 1,33 Гбайт (76%)
Язык : English
Default : Да
Forced : Нет
Цветовой диапазон : Limited
Основные цвета : BT.709
Характеристики трансфера : BT.709
Коэффициенты матрицы : BT.709

Аудио #1
Идентификатор : 2
Формат : AC-3
Формат/Информация : Audio Coding 3
Расширение режима : CM (complete main)
Параметр Endianness формата : Big
Идентификатор кодека : A_AC3
Продолжительность : 58 м. 18 с.
Вид битрейта : Постоянный
Битрейт : 384 Кбит/сек
Каналы : 6 каналов
Расположение каналов : Front: L C R, Side: L R, LFE
Частота : 48,0 КГц
Частота кадров : 31,250 кадров/сек (1536 spf)
Метод сжатия : С потерями
Размер потока : 160 Мбайт (9%)
Заголовок : TVShows
Язык : Russian
Default : Да
Forced : Да

Аудио #2
Идентификатор : 3
Формат : E-AC-3
Формат/Информация : Audio Coding 3
Параметр Endianness формата : Big
Идентификатор кодека : A_EAC3
Продолжительность : 58 м. 18 с.
Вид битрейта : Постоянный
Битрейт : 640 Кбит/сек
Каналы : 6 каналов
Расположение каналов : Front: L C R, Side: L R, LFE
Частота : 48,0 КГц
Частота кадров : 187,500 кадров/сек (256 spf)
Метод сжатия : С потерями
Задержка видео : 24 мс.
Размер потока : 267 Мбайт (15%)
Заголовок : Original
Язык : English
Default : Нет
Forced : Нет

Текст
Идентификатор : 4
Формат : UTF-8
Идентификатор кодека : S_TEXT/UTF8
Идентификатор кодека/Информация : UTF-8 Plain Text
Продолжительность : 58 м. 4 с.
Битрейт : 79 бит/сек
ElementCount : 1183
Размер потока : 33,9 Кбайт (0%)
Заголовок : English
Язык : English
Default : Нет
Forced : Нет
скриншот  скриншот  скриншот  скриншот  скриншот  

Внимание! Раздача ведётся путём добавления новых серий; при каждом добавлении создаётся новый торрент.
Чтобы начать докачку новой серии, пользователям необходимо сделать следующее:
1. Остановить скачивание;
2. Удалить старый торрент у себя из клиента (старые серии удалять не надо);
3. Скачать новый торрент и запустить его у себя в клиенте вместо старого, при этом указать клиенту путь в старую папку куда и должно происходить скачивание новых серий. Ваш клиент при этом должен произвести хеширование (проверку) старой папки и будет докачивать только те серии, которых у вас ещё нет. Старые серии при этом не удаляются, а продолжают раздаваться! Eсли вы уже удалили старые серии, то предотвратить повторную закачку старых серий можно, отжав галочку в соответствующих местах при запуске нового торрента.
piratbit.pw



Скачать Достать коротышку через торрент http://i87.fastpic.ru/big/2019/1009/74/53cb7362ef994cac0aade1d755f3bb74.jpg Скачать фильм Достать коротышку через торрент бесплантно в хорошем качестве Описание: Продолжение истории двух незадачливых гангстеров, которые решили, что самым удачным вложением денег мафии будет... собственный ... 10 10 3
Торрент: Зарегистрирован [2019-11-08 14:18] · скачан: 3 раз
Статус: √ проверено
Размер: 8.55 GB
Как cкачать? Как скачать Достать коротышку через торрент | qTorrent

% Раздел Тема Автор DL S | L
Зарубежные сериалы [ 3.74 GB ] Достать коротышку / Get Shorty / Сезон: 3 / Серии 1-5 из 10 [2019 WEB-DLRip] [MVO] killermax2013 Скачать
2 | 0


Последний раз редактировалось: bober100 (2019-11-08 14:18), всего редактировалось 1 раз


>> Регистрируемся здесь <<






Отзывы и комментарии о схеме читаем и пишем здесь: ---> Отзывы и комментарии о схеме

Новые благодарочки в телеграм довольных пользователей:
скриншот   скриншот   скриншот   скриншот   скриншот

01-11-2019 10:33 Достать коротышку Скачать торрент  

о шикардос подвезли обожаю этот сериал) piratbit.pw



    Дорогой пользователь! Огромная просьба, поблагодарите релизера, оцените раздачу и оставьте свои комментарий, если Вы скачали Достать коротышку через торрент бесплатно! Внесите свою лепту в развитие PiratBit!
    Комментировать посты могут только пользователи прошедшие не сложную регистрацию
    Показать сообщения:    

    Достать коротышку через торрент
    Скачать бесплатно Достать коротышку
    Достать коротышку скачать торрент
    Достать коротышку смотреть онлайн
    Cкачать фильм Достать коротышку бесплатно
    Достать коротышку скачать торрент в хорошем качестве
    Достать коротышку смотреть онлайн бесплатно в хорошем качестве


    Вы не можете начинать темы
    Вы не можете отвечать на сообщения
    Вы не можете редактировать свои сообщения
    Вы не можете удалять свои сообщения
    Вы не можете голосовать в опросах
    Вы не можете прикреплять файлы к сообщениям
    Вы можете скачивать файлы