новый адрес
Мега распродажа FORZA HORIZON 4 ULTIMATE+ВСЕ DLC+ОНЛАЙН всего за 499р. 349 руб. (супер цена). Внимание количество ограничено!!!

iTunes

1+1

iTunes

мы

iTunes

1

iTunes

Чернобыль

iTunes

Ральф против интернета

Лицензия

ПШазам

Лицензия

Оно 2

Лицензия

30
pack

ВАЖНО

!!Акция!!

Alien_RageХит недели

RePack

Resident Evil 21

ИГРА 18+

pack

RePack

jed

!!Акция!!

Alien_Rage

RePack

fifa19

RePack

Assassins Creed: Odyssey

RePack

NEED FOR SPEED™ PAYBACK

3 сезон

9 сезон

Бесстыжие 9 сезон

Все сериалы

все сериалы на PB.wtf

RePack

FAR CRY 5
Ребята, катастрофически не хватает 1900р. для оплаты серверов за Октябрь (всвязи с блокировками трафик упал в 3 раза), 1-2р., выручайте.
  

Достать коротышку / Get Shorty / Сезон: 3 / Серии: 1-6 из 10 (Адам Аркин, Дэниэл Эттиэс, Эдвард Бьянчи) [2019, драма, комедия, WEB-DL 1080p] MVO [TVShows] piratbit.pw

Достать коротышку через торрент piratbit.pw

Размер: 21.94 GB | Добавлен: 6 д. назад | Торрент скачан:1 раз
Скачать  

10-10-2019 12:27 Достать коротышку Скачать торрент  

Достать коротышку / Get Shorty Год выпуска: 2019
Страна: США
Жанр: Комедия, криминал
Продолжительность: ~ 00:54:00
Перевод: Профессиональный (многоголосый закадровый) | TVShows
Субтитры: Английские

Режиссёр: Адам Аркин, Дэниэл Эттиэс, Эдвард Бьянчи

В ролях: Крис О`Дауд, Рэй Романо, Джиллиан Вигмэн, Кристин Элиз, Люси Уолтерс, Кристоффер Полаха, Шон Бриджерс, Лора Каннингэм, Меган Стивенсон, Брэд Картер

Описание: Продолжение истории двух незадачливых гангстеров, которые решили, что самым удачным вложением денег мафии будет... собственный фильм! Когда в активе есть хитовый сценарий, толковый продюсер и щедрый инвестор - это уже потенциальный блокбастер! Особенно если никто не запрещает подкупать, шантажировать и устранять конкурентов.

rating

Качество: WEB-DL 1080p
Контейнер: MKV

Видео: MPEG-4 AVC, ~ 8125 Кбит/с, 1920x1080
Аудио #1: 48 kHz, AC3, 6 ch., 384 kbps | Rus
Аудио #2: 48 kHz, E-AC3, 6 ch., 640 kbps | Eng


Реклама: Отсутствует
General
Unique ID : 88528165029038536840218147135202972073 (0x4299E78670139EB4801B13B8B3AAD1A9)
Complete name : Get.Shorty.S03E01.1080p.TVShows.mkv
Format : Matroska
Format version : Version 4 / Version 2
File size : 3.73 GiB
Duration : 58 min 18 s
Overall bit rate : 9 151 kb/s
Movie name : Get.Shorty.S03E01.720p.WEB.h264-CONVOY
Encoded date : UTC 2019-10-10 11:50:58
Writing application : mkvmerge v33.1.0 ('Primrose') 64-bit
Writing library : libebml v1.3.7 + libmatroska v1.5.0

Video
ID : 1
Format : AVC
Format/Info : Advanced Video Codec
Format profile : High@L4
Format settings, CABAC : Yes
Format settings, ReFrames : 4 frames
Codec ID : V_MPEG4/ISO/AVC
Duration : 58 min 18 s
Bit rate mode : Constant
Bit rate : 8 125 kb/s
Nominal bit rate : 10 000 kb/s
Width : 1 920 pixels
Height : 1 080 pixels
Display aspect ratio : 16:9
Frame rate mode : Constant
Frame rate : 23.976 (24000/1001) FPS
Color space : YUV
Chroma subsampling : 4:2:0
Bit depth : 8 bits
Scan type : Progressive
Bits/(Pixel*Frame) : 0.163
Stream size : 3.31 GiB (89%)
Language : English
Default : Yes
Forced : No
Color range : Limited
Color primaries : BT.709
Transfer characteristics : BT.709
Matrix coefficients : BT.709

Audio #1
ID : 2
Format : AC-3
Format/Info : Audio Coding 3
Mode extension : CM (complete main)
Format settings, Endianness : Big
Codec ID : A_AC3
Duration : 58 min 18 s
Bit rate mode : Constant
Bit rate : 384 kb/s
Channel(s) : 6 channels
Channel positions : Front: L C R, Side: L R, LFE
Sampling rate : 48.0 kHz
Frame rate : 31.250 FPS (1536 spf)
Bit depth : 16 bits
Compression mode : Lossy
Stream size : 160 MiB (4%)
Title : TVShows
Language : Russian
Default : Yes
Forced : Yes

Audio #2
ID : 3
Format : E-AC-3
Format/Info : Enhanced Audio Coding 3
Format settings, Endianness : Big
Codec ID : A_EAC3
Duration : 58 min 18 s
Bit rate mode : Constant
Bit rate : 640 kb/s
Channel(s) : 6 channels
Channel positions : Front: L C R, Side: L R, LFE
Sampling rate : 48.0 kHz
Frame rate : 187.500 FPS (256 spf)
Compression mode : Lossy
Delay relative to video : 24 ms
Stream size : 267 MiB (7%)
Title : Original
Language : English
Default : No
Forced : No

Text
ID : 4
Format : UTF-8
Codec ID : S_TEXT/UTF8
Codec ID/Info : UTF-8 Plain Text
Duration : 58 min 4 s
Bit rate : 79 b/s
Count of elements : 1183
Stream size : 33.9 KiB (0%)
Title : English
Language : English
Default : No
Forced : No
скриншот  скриншот  скриншот  скриншот  
Внимание! Раздача ведётся путём добавления новых серий; при каждом добавлении создаётся новый торрент.
Чтобы начать докачку новой серии, пользователям необходимо сделать следующее:
1. Остановить скачивание;
2. Удалить старый торрент у себя из клиента (старые серии удалять не надо);
3. Скачать новый торрент и запустить его у себя в клиенте вместо старого, при этом указать клиенту путь в старую папку куда и должно происходить скачивание новых серий. Ваш клиент при этом должен произвести хеширование (проверку) старой папки и будет докачивать только те серии, которых у вас ещё нет. Старые серии при этом не удаляются, а продолжают раздаваться! Eсли вы уже удалили старые серии, то предотвратить повторную закачку старых серий можно, отжав галочку в соответствующих местах при запуске нового торрента.
piratbit.pw



Скачать Достать коротышку через торрент http://i87.fastpic.ru/big/2019/1009/74/53cb7362ef994cac0aade1d755f3bb74.jpg Скачать фильм Достать коротышку через торрент бесплантно в хорошем качестве Описание: Продолжение истории двух незадачливых гангстеров, которые решили, что самым удачным вложением денег мафии будет... собственный ... 10 10 3
Торрент: Зарегистрирован [2019-11-14 07:33] · скачан: 1 раз
Статус: √ проверено
Размер: 21.94 GB
Как cкачать? Как скачать Достать коротышку через торрент | qTorrent

% Раздел Тема Автор DL S | L
Зарубежные сериалы [ 20.8 GB ] Достать коротышку / Get Shorty / Сезон: 3 / Серии: 1-6 из 10 [2019 WEB-DL 1080p] MVO [SDI Media] bober100 Скачать
1 | 0


>> Регистрируемся здесь <<






Отзывы и комментарии о схеме читаем и пишем здесь: ---> Отзывы и комментарии о схеме

Новые благодарочки в телеграм довольных пользователей:
скриншот   скриншот   скриншот   скриншот   скриншот
    Дорогой пользователь! Огромная просьба, поблагодарите релизера, оцените раздачу и оставьте свои комментарий, если Вы скачали Достать коротышку через торрент бесплатно! Внесите свою лепту в развитие PiratBit!
    Комментировать посты могут только пользователи прошедшие не сложную регистрацию
    Показать сообщения:    

    Достать коротышку через торрент
    Скачать бесплатно Достать коротышку
    Достать коротышку скачать торрент
    Достать коротышку смотреть онлайн
    Cкачать фильм Достать коротышку бесплатно
    Достать коротышку скачать торрент в хорошем качестве
    Достать коротышку смотреть онлайн бесплатно в хорошем качестве


    Вы не можете начинать темы
    Вы не можете отвечать на сообщения
    Вы не можете редактировать свои сообщения
    Вы не можете удалять свои сообщения
    Вы не можете голосовать в опросах
    Вы не можете прикреплять файлы к сообщениям
    Вы можете скачивать файлы