Ссылка на приватное зеркало всего за 1$. Внимание количество ограничено!!!

iTunes

iTunes

iTunes

1

iTunes

iTunes

iTunes

WEBRip

iTunes

30
pack

$ от Little Big

ВАЖНО

!!Акция!!

Alien_RageХит недели

RePack

Resident Evil 21

ИГРА 18+

pack

RePack

jed

!!Акция!!

Alien_Rage

RePack

fifa19

RePack

Assassins Creed: Odyssey

RePack

NEED FOR SPEED™ PAYBACK

4 сезон

9 сезон

Бесстыжие 9 сезон

Все сериалы

все сериалы на PB.wtf

RePack

FAR CRY 5
  

Мистер Робот / Mr. Robot / Сезон: 4 / Серии: 1-13 из 13 (Сэм Эсмейл) [2019, триллер, драма, криминал, WEB-DL 1080p] MVO [TVShows] piratbit.pw

Мистер Робот через торрент piratbit.pw

Размер: 37.21 GB | Добавлен: 7 мес. назад | Торрент скачан:1 раз
Скачать  

10-10-2019 10:36 Мистер Робот Скачать торрент  

Мистер Робот | Mr. Robot
«I'm crazy. This is crazy. I'm crazy»
Производство: США
Год выпуска: 2019
Жанр: триллер, драма, криминал
Продолжительность: ~ 01:00:00 серия
Премьера (мир): 17 марта 2015
Премьера (РФ): 6 февраля 2017
Перевод: Профессиональный (многоголосый закадровый) | TVShows
Субтитры: Английские

Режиссёр: Сэм Эсмейл, Джим МакКэй, Триша Брок

В ролях: Рами Малек, Кристиан Слэйтер, Карли Чаикин, Портия Даблдэй, Мартин Вальстрём, Майкл Кристофер, Грэйс Гаммер, Стефани Корнелиуссен, Б.Д. Вонг

Описание:
История молодого программиста Эллиота, страдающего социофобией и решившего, что единственный приемлемый для него способ взаимодействия с людьми — это профессия хакера. Таким образом, он быстро оказывается в том самом месте, где пересекаются интересы его работодателя — фирмы, занимающейся кибербезопасностью, — и подпольных организаций, которые пытаются его завербовать с целью обрушения самых могучих американских корпораций.



Качество: WEB-DL 1080p
Формат: MKV

Видео: MPEG-4 AVC, ~ 7630 Кбит/с, 1920x1080
Аудио Rus: AC-3, 48 kHz, 6 ch, 448 kbps |TVShows|
Аудио Eng: E-AC-3, 48 kHz, 6 ch, 640 kbps |Original|


Реклама: Отсутствует
General
Unique ID : 318150722109437503850675517269431962841 (0xEF5999AA3D509979FF8F53A1F78A4CD9)
Complete name : D:\Mr.Robot.S04E01.1080p.TVShows.mkv
Format : Matroska
Format version : Version 4
File size : 3.71 GiB
Duration : 1 h 0 min
Overall bit rate : 8 720 kb/s
Encoded date : UTC 2019-10-10 09:03:24
Writing application : mkvmerge v33.1.0 ('Primrose') 64-bit
Writing library : libebml v1.3.7 + libmatroska v1.5.0

Video
ID : 1
Format : AVC
Format/Info : Advanced Video Codec
Format profile : High@L4
Format settings : CABAC / 4 Ref Frames
Format settings, CABAC : Yes
Format settings, Reference frames : 4 frames
Codec ID : V_MPEG4/ISO/AVC
Duration : 1 h 0 min
Bit rate mode : Constant
Bit rate : 7 630 kb/s
Nominal bit rate : 10 000 kb/s
Width : 1 920 pixels
Height : 1 080 pixels
Display aspect ratio : 16:9
Frame rate mode : Constant
Frame rate : 23.976 (24000/1001) FPS
Color space : YUV
Chroma subsampling : 4:2:0
Bit depth : 8 bits
Scan type : Progressive
Bits/(Pixel*Frame) : 0.153
Stream size : 3.25 GiB (87%)
Default : Yes
Forced : No
Color range : Limited
Color primaries : BT.709
Transfer characteristics : BT.709
Matrix coefficients : BT.709

Audio #1
ID : 2
Format : AC-3
Format/Info : Audio Coding 3
Commercial name : Dolby Digital
Codec ID : A_AC3
Duration : 1 h 0 min
Bit rate mode : Constant
Bit rate : 448 kb/s
Channel(s) : 6 channels
Channel layout : L R C LFE Ls Rs
Sampling rate : 48.0 kHz
Frame rate : 31.250 FPS (1536 SPF)
Compression mode : Lossy
Stream size : 195 MiB (5%)
Title : TVShows
Language : Russian
Service kind : Complete Main
Default : Yes
Forced : Yes

Audio #2
ID : 3
Format : E-AC-3
Format/Info : Enhanced AC-3
Commercial name : Dolby Digital Plus
Codec ID : A_EAC3
Duration : 1 h 0 min
Bit rate mode : Constant
Bit rate : 640 kb/s
Channel(s) : 6 channels
Channel layout : L R C LFE Ls Rs
Sampling rate : 48.0 kHz
Frame rate : 31.250 FPS (1536 SPF)
Compression mode : Lossy
Stream size : 279 MiB (7%)
Title : Original
Language : English
Service kind : Complete Main
Default : No
Forced : No

Text
ID : 4
Format : UTF-8
Codec ID : S_TEXT/UTF8
Codec ID/Info : UTF-8 Plain Text
Duration : 1 h 0 min
Bit rate : 56 b/s
Count of elements : 835
Stream size : 25.1 KiB (0%)
Title : English
Language : English
Default : No
Forced : No
скриншот  скриншот  скриншот  скриншот  
Раздача ведётся путём добавления новых серий; при каждом добавлении создаётся новый торрент.
Чтобы начать докачку новой серии, пользователям необходимо сделать следующее:
1. остановить скачивание,
2. удалить старый торрент у себя из клиента (старые серии удалять не надо),
3. скачать новый торрент и запустить его у себя в клиенте вместо старого, при этом указать клиенту путь в старую папку, куда и должно происходить скачивание новых серий.

Ваш клиент при этом должен произвести хеширование (проверку) старой папки (если не производит сам - помогите ему сделать это), и будет докачивать только те серии которых у вас ещё нет. Старые серии при этом не удаляются, а продолжают раздаваться!

Eсли вы уже удалили старые серии, то предотвратить повторную закачку старых серий можно, отжав галочку в соответствующих местах при запуске нового торрента. По возможности, желательно не удалять старые серии как можно дольше, чтобы релизёр не столько продолжал раздавать старые серии, а смог сконцентрироваться на новых.

Совет для тех, кто не хочет ждать перехеширования:
Создайте ещё одну папку рядом с папкой сериала (рядом, а не в ней!!!). Каждую новую серию после удачной загрузки копируйте в новую папку так чтобы ваша основная папка всегда была пуста. Когда ваш новый торрент предложит вам закачать все файлы, выберете только последнюю. Для сидирования же укажите адрес новой папки.

Как закачать отдельный файл из торрента или докачать ранее пропущенные файлы торрента!
1. Открыть торрент
2. Снять галки с тех файлов торрента, которые мы не хотим закачивать. Оставляем только на нужных нам файлах (файле).
3. Нажать О.К.

В клиенте utorrent

Инструкция

1) Открыть торрент


2) Снять галки с тех файлов торрента, которые мы не хотим закачивать:

* либо вручную, снимая с каждого файла галку( скрин №1)
* либо, нажав кнопку "Снять метки (Select None)", сняв сразу со всех файлов(скрин №2)
№1

№2

Оставляем только на нужных нам файлах (файле).

3)Нажать О.К
Приятного просмотра!!!piratbit.pw



Скачать Мистер Робот через торрент https://i6.imageban.ru/out/2019/10/09/3fa85cd441eb0a4c099acbc103b06df7.png Скачать фильм Мистер Робот через торрент бесплантно в хорошем качестве Описание:История молодого программиста Эллиота, страдающего социофобией и решившего, что единственный приемлемый для него способ ... 10 10 2
Торрент: Зарегистрирован [2019-12-25 09:06] · скачан: 1 раз
Статус: √ проверено
Размер: 37.21 GB
Как cкачать? Как скачать Мистер Робот через торрент | qTorrent

% Раздел Тема Автор DL S | L
Зарубежные сериалы [ 40.36 GB ] Мистер Робот / Mr. Robot / Сезон: 4 / Серии: 1-13 из 13 [2019 WEB-DL 1080p] MVO [Lostfilm] bober100 Скачать
1 | 0
Зарубежные сериалы [ 12.28 GB ] Мистер Робот / Mr. Robot / Сезон: 4 / Серии: 1-13 из 13 [2019 WEB-DLRip] DVO [Кубик в Кубе] bober100 Скачать
1 | 0
Зарубежные сериалы [ 17.37 GB ] Мистер Робот / Mr. Robot / Сезон: 4 / Серии: 1-13 из 13 [2019 WEB-DL 720p] MVO [TVShows] bober100 Скачать
1 | 0
Зарубежные сериалы [ 21.71 GB ] Мистер Робот / Mr. Robot / Сезон: 4 / Серии: 1-13 из 13 [2019 WEB-DL 720p] MVO [NewStudio] bober100 Скачать
1 | 0
Зарубежные сериалы [ 7.86 GB ] Мистер Робот / Mr. Robot / Сезон: 4 / Серии: 1-13 из 13 [2019 WEB-DLRip] MVO [Jaskier] bober100 Скачать
1 | 0
Зарубежные сериалы [ 36.33 GB ] Мистер Робот / Mr. Robot / Сезон: 4 / Серии: 1-13 из 13 [2019 WEB-DL 1080p] MVO [Jaskier] bober100 Скачать
1 | 0
Зарубежные сериалы [ 16.49 GB ] Мистер Робот / Mr. Robot / Сезон: 4 / Серии: 1-13 из 13 [2019 WEB-DL 720p] MVO [Jaskier] bober100 Скачать
1 | 0

28-11-2019 20:33  

Отключить всю рекламу на сайте

    Дорогой пользователь! Огромная просьба, поблагодарите релизера, оцените раздачу и оставьте свои комментарий, если Вы скачали Мистер Робот через торрент бесплатно! Внесите свою лепту в развитие PiratBit!
    Комментировать посты могут только пользователи прошедшие не сложную регистрацию
    Показать сообщения:    

    Мистер Робот через торрент
    Скачать бесплатно Мистер Робот
    Мистер Робот скачать торрент
    Мистер Робот смотреть онлайн
    Cкачать фильм Мистер Робот бесплатно
    Мистер Робот скачать торрент в хорошем качестве
    Мистер Робот смотреть онлайн бесплатно в хорошем качестве


    Вы не можете начинать темы
    Вы не можете отвечать на сообщения
    Вы не можете редактировать свои сообщения
    Вы не можете удалять свои сообщения
    Вы не можете голосовать в опросах
    Вы не можете прикреплять файлы к сообщениям
    Вы можете скачивать файлы