Marvel's Avengers Deluxe Edition (супер цена) 159р. Внимание количество ограничено!!!

2 сезон

iTunes

iTunes

1

iTunes

iTunes

iTunes

WEBRip

iTunes

30
pack

Новость дня

ВАЖНО

!!Акция!!

Alien_RageХит недели

RePack

Horizon Zero Dawn

ИГРА 18+

pack

RePack

jed

!!Акция!!

Alien_Rage

RePack

fifa19

RePack

Assassins Creed: Odyssey

RePack

NEED FOR SPEED™ PAYBACK

4 сезон

9 сезон

Бесстыжие 9 сезон

Все сериалы

все сериалы на PB.wtf

RePack

FAR CRY 5
  

Битва (Анар Аббасов) [2019, драма, WEB-DL 1080p] [iTunes] piratbit.pw

Битва через торрент piratbit.pw

Размер: 2.94 GB | Добавлен: 11 мес. назад | Торрент скачан:188 раз
Скачать  

10-10-2019 09:46 Битва Скачать торрент  

Битва
Год выпуска: 2019
Страна: Россия
Жанр: драма
Продолжительность: 01:25:12
Перевод: Не требуется | iTunes
Субтитры: отсутствуют

Режиссер: Анар Аббасов

rating

В ролях: Риналь Мухаметов, Анна Исаева, Екатерина Кукуй, Илья Антоненко, Игорь Миркурбанов, Виталий Коваленко, Анфиса Семина, Алла Еминцева

Описание: Стрит дансер Антон делает стремительную карьеру — его команда побеждает на всех баттлах, он признанный хореограф и всё его будущее связано с танцем. Однако несчастный случай рушит все планы — Антон лишается слуха, а с ним и всех надежд. Оказавшись в непривычном мире тишины, Антон постепенно понимает, что это не конец. Страсть к танцу, воля к победе и любовь к жизни подсказывают ему новый путь к заветной мечте. И его главная битва ещё впереди...

Качество: WEB-DL 1080p
Формат: MKV

Видео: 1920x806 (2.40:1), 24.000 fps, MPEG-4 AVC ~4 456 kbps avg
Аудио: 48.0 kHz, AC3 Dolby Digital, 3/2 (L,C,R,l,r) + LFE ch, ~384 kbps
скриншот  скриншот  скриншот  скриншот  

Общее
Уникальный идентификатор : 254820843642681743628885715794963428011 (0xBFB4B5962990C5CEA94DD8FA3F6F72AB)
Полное имя : BITVA_2019_WEB-DL_1080p-BLUEBIRD.mkv
Формат : Matroska
Версия формата : Version 4
Размер файла : 2,94 Гбайт
Продолжительность : 1 ч. 25 м.
Общий поток : 4939 Кбит/сек
Название фильма : BITVA_2019_WEB-DL_1080p-BLUEBIRD
Дата кодирования : UTC 2019-10-09 18:24:48
Программа кодирования : mkvmerge v6.9.1 ('Blue Panther') 32bit built on Apr 18 2014 18:15:44
Библиотека кодирования : libebml v1.3.0 + libmatroska v1.4.1
Обложка : Yes
Attachments : cover2.png

Видео
Идентификатор : 1
Формат : AVC
Формат/Информация : Advanced Video Codec
Профиль формата : High@L4
Настройки формата : CABAC / 5 Ref Frames
Параметр CABAC формата : Да
Параметр RefFrames формата : 5 кадров
Идентификатор кодека : V_MPEG4/ISO/AVC
Продолжительность : 1 ч. 25 м.
Битрейт : 4456 Кбит/сек
Ширина : 1920 пикселей
Высота : 806 пикселей
Соотношение сторон : 2,40:1
Режим частоты кадров : Постоянный
Частота кадров : 24,000 кадра/сек
Цветовое пространство : YUV
Субдискретизация насыщенности : 4:2:0
Битовая глубина : 8 бит
Тип развёртки : Прогрессивная
Бит/(Пиксели*Кадры) : 0.120
Размер потока : 2,65 Гбайт (90%)
Заголовок : BITVA_2019_WEB-DL_1080p-BLUEBIRD
Язык : English
Default : Да
Forced : Нет
Цветовой диапазон : Limited
Основные цвета : BT.709
Характеристики трансфера : BT.709
Коэффициенты матрицы : BT.709

Аудио
Идентификатор : 2
Формат : AC-3
Формат/Информация : Audio Coding 3
Коммерческое название : Dolby Digital
Идентификатор кодека : A_AC3
Продолжительность : 1 ч. 25 м.
Вид битрейта : Постоянный
Битрейт : 384 Кбит/сек
Каналы : 6 каналов
Channel layout : L R C LFE Ls Rs
Частота : 48,0 КГц
Частота кадров : 31,250 кадров/сек (1536 SPF)
Битовая глубина : 16 бит
Метод сжатия : С потерями
Размер потока : 234 Мбайт (8%)
Заголовок : [ORIGINAL] DD 5.1 @ 384 kbps (iTunes)
Язык : Russian
ServiceKind/String : Complete Main
Default : Да
Forced : Нет

Меню
00:00:00.000 : en:Глава 1
00:07:07.791 : en:Глава 2
00:13:57.874 : en:Глава 3
00:21:01.165 : en:Глава 4
00:26:05.165 : en:Глава 5
00:33:23.498 : en:Глава 6
00:40:20.789 : en:Глава 7
00:46:02.872 : en:Глава 8
00:51:56.663 : en:Глава 9
00:57:26.454 : en:Глава 10
01:02:56.079 : en:Глава 11
01:07:39.079 : en:Глава 12
01:17:09.870 : en:Глава 13

piratbit.pw



Скачать Битва через торрент http://a.radikal.ru/a08/1910/ba/2b8f9f8e0778.jpg Скачать фильм Битва через торрент бесплантно в хорошем качестве Описание: Стрит дансер Антон делает стремительную карьеру — его команда побеждает на всех баттлах, он признанный хореограф и всё его ... 9 10 8
Торрент: Зарегистрирован [2019-10-10 09:46] · скачан: 188 раз
Статус: √ проверено
Размер: 2.94 GB
Как cкачать? Как скачать Битва через торрент | qTorrent

% Раздел Тема Автор DL S | L
TBS (пошаговые стратегии) [ 1.1 GB ] Mount And Blade.Огнём и мечом - Великие битвы.v 1.134 [Repack RU] roman3310i Скачать
1 | 0
Фильмы [HD 720p, 1080p] (Хороший звук DUB, MVO) [ 11.87 GB ] Инопланетное вторжение: Битва за Лос-Анджелес / Battle: Los Angeles [2011 BDRip ] k@rl$on Скачать
1 | 0
Авиасимуляторы [ 3.58 GB ] Ил-2 Штурмовик: Битва за Британию 2011 [Lossless RePackRU/EN Simulator / 3D] =Чувак= Скачать
1 | 0
Зарубежные сериалы [ 1.29 GB ] Смертельная битва: Наследие / Mortal Kombat: Legacy [Сезон: 1 / Серии: 1-9 из 9] [2011 BDRip] Sудья Скачать
1 | 0
Фильмы до 2000 г. [ 2.69 GB ] Смертельная битва / Mortal Kombat [1995 ... BDRip] Kristian Larsson Скачать
1 | 0
RPG [ 1.11 GB ] Mount & Blade. Огнём и мечом. Великие битвы [RePack Русск​​ий] от R.G. Pirat's R.G. Repacker's Скачать
2 | 0
Фильмы 2010 [ 2.05 GB ] Вторжение: Битва за рай / Tomorrow When the War Began [2010 военный HDRip лицензия] coc900 Скачать
1 | 0

28-11-2019 20:33  

Отключить всю рекламу на сайте

10-10-2019 21:31 Битва Скачать торрент  

Кто смотрел это Говно?piratbit.pw



    Дорогой пользователь! Огромная просьба, поблагодарите релизера, оцените раздачу и оставьте свои комментарий, если Вы скачали Битва через торрент бесплатно! Внесите свою лепту в развитие PiratBit!
    Комментировать посты могут только пользователи прошедшие не сложную регистрацию
    Показать сообщения:    

    Битва через торрент
    Скачать бесплатно Битва
    Битва скачать торрент
    Битва смотреть онлайн
    Cкачать фильм Битва бесплатно
    Битва скачать торрент в хорошем качестве
    Битва смотреть онлайн бесплатно в хорошем качестве


    Вы не можете начинать темы
    Вы не можете отвечать на сообщения
    Вы не можете редактировать свои сообщения
    Вы не можете удалять свои сообщения
    Вы не можете голосовать в опросах
    Вы не можете прикреплять файлы к сообщениям
    Вы можете скачивать файлы