новый адрес
Мега распродажа FORZA HORIZON 4 ULTIMATE+ВСЕ DLC+ОНЛАЙН всего за 499р. 349 руб. (супер цена). Внимание количество ограничено!!!

iTunes

1+1

iTunes

мы

iTunes

1

iTunes

Чернобыль

iTunes

Ральф против интернета

Лицензия

ПШазам

Лицензия

Оно 2

Лицензия

30
pack

ВАЖНО

!!Акция!!

Alien_RageХит недели

RePack

Resident Evil 21

ИГРА 18+

pack

RePack

jed

!!Акция!!

Alien_Rage

RePack

fifa19

RePack

Assassins Creed: Odyssey

RePack

NEED FOR SPEED™ PAYBACK

3 сезон

9 сезон

Бесстыжие 9 сезон

Все сериалы

все сериалы на PB.wtf

RePack

FAR CRY 5
Ребята, катастрофически не хватает 1900р. для оплаты серверов за Октябрь (всвязи с блокировками трафик упал в 3 раза), 1-2р., выручайте.
  

Титаны / Titans / Сезон: 2 / Серии: 1-10 из 13 (Кэрол Бенкер) [2019, фантастика, фэнтези, боевик, драма, криминал, приключения, WEB-DL 720p] MVO [NewStudio] piratbit.pw

Титаны через торрент piratbit.pw

Раздают: 1 [ 0 KB/s ]
Размер: 12.68 GB | Добавлен: 4 д. назад | Торрент скачан:6 раз
Скачать  

10-10-2019 08:02 Титаны Скачать торрент  

Титаны | Titans
«***»
Производство: США
Год выпуска: 2019
Жанр: фантастика, фэнтези, боевик, драма, криминал, приключения
Продолжительность: ~ 00:52:00 серия
Премьера (мир): 3 октября 2018
Перевод: Профессиональный (многоголосый закадровый) | NewStudio
Субтитры: Rus, Eng

Режиссёр: Кэрол Бенкер, Акива Голдсман, Алекс Калимниос

В ролях: Брентон Туэйтс, Тиган Крофт, Анна Диоп, Линдси Горт, Райан Поттер, Каррен Уолтерс, Шеймус Девер, Эйприл Боулби, Дуэйн Мерфи

Описание:
В надежде остановить своего отца — древнего демона Тригона — обладательница невероятных способностей девушка Рэйвен обращается за помощью к Робину. Бывший напарник Бэтмена теперь сам вершит правосудие на улицах Готэма, но, чтобы остановить зло, Рэйвен и Робину понадобится подмога.



Качество: WEB-DL 720p
Формат: MKV

Видео: AVC, 1280 x 720 (1.778), 23.976 fps, ~2986 kbps
Аудио Rus: AC-3, 48 kHz, 6 ch, 384 kbps |NewStudio|
Аудио Eng: AC-3, 48 kHz, 6 ch, 640 kbps |Original|


Реклама: Отсутствует
Общее
Уникальный идентификатор : 20240047949098882920947877702482020355 (0xF3A1768BFDE43F6794C1C7B8F944803)
Полное имя : E:\_Сериалы\_Сериалы\Титаны\Titans.s02.WEBDL.720p.NewStudio\Titans.s02e01.WEBDL.720p.NewStudio.mkv
Формат : Matroska
Версия формата : Version 4
Размер файла : 1,47 Гбайт
Продолжительность : 52 м. 29 с.
Общий поток : 4012 Кбит/сек
Дата кодирования : UTC 2019-10-02 18:51:39
Программа кодирования : mkvmerge v37.0.0 ('Leave It') 64-bit
Библиотека кодирования : libebml v1.3.9 + libmatroska v1.5.2

Видео
Идентификатор : 1
Формат : AVC
Формат/Информация : Advanced Video Codec
Профиль формата : Baseline@L3.1
Настройки формата : 3 Ref Frames
Параметр CABAC формата : Нет
Параметр RefFrames формата : 3 кадра
Параметр GOP формата : M=1, N=48
Идентификатор кодека : V_MPEG4/ISO/AVC
Продолжительность : 52 м. 29 с.
Битрейт : 2986 Кбит/сек
Ширина : 1280 пикселей
Высота : 720 пикселей
Соотношение сторон : 16:9
Режим частоты кадров : Постоянный
Частота кадров : 23,976 (24000/1001) кадра/сек
Цветовое пространство : YUV
Субдискретизация насыщенности : 4:2:0
Битовая глубина : 8 бит
Тип развёртки : Прогрессивная
Бит/(Пиксели*Кадры) : 0.135
Размер потока : 1,09 Гбайт (74%)
Библиотека кодирования : Zencoder Video Encoding System
Язык : English
Default : Да
Forced : Нет
Цветовой диапазон : Limited
Основные цвета : BT.709
Характеристики трансфера : BT.709
Коэффициенты матрицы : BT.709

Аудио #1
Идентификатор : 2
Формат : AC-3
Формат/Информация : Audio Coding 3
Коммерческое название : Dolby Digital
Идентификатор кодека : A_AC3
Продолжительность : 52 м. 29 с.
Вид битрейта : Постоянный
Битрейт : 384 Кбит/сек
Каналы : 6 каналов
ChannelLayout : L R C LFE Ls Rs
Частота : 48,0 КГц
Частота кадров : 31,250 кадров/сек (1536 SPF)
Метод сжатия : С потерями
Размер потока : 144 Мбайт (10%)
Язык : Russian
ServiceKind/String : Complete Main
Default : Да
Forced : Нет

Аудио #2
Идентификатор : 3
Формат : AC-3
Формат/Информация : Audio Coding 3
Коммерческое название : Dolby Digital
Идентификатор кодека : A_AC3
Продолжительность : 52 м. 29 с.
Вид битрейта : Постоянный
Битрейт : 640 Кбит/сек
Каналы : 6 каналов
ChannelLayout : L R C LFE Ls Rs
Частота : 48,0 КГц
Частота кадров : 31,250 кадров/сек (1536 SPF)
Метод сжатия : С потерями
Размер потока : 240 Мбайт (16%)
Язык : English
ServiceKind/String : Complete Main
Default : Нет
Forced : Нет

Текст #1
Идентификатор : 4
Формат : UTF-8
Идентификатор кодека : S_TEXT/UTF8
Идентификатор кодека/Информация : UTF-8 Plain Text
Продолжительность : 50 м. 12 с.
Битрейт : 78 бит/сек
ElementCount : 624
Размер потока : 28,8 Кбайт (0%)
Язык : Russian
Default : Нет
Forced : Нет

Текст #2
Идентификатор : 5
Формат : UTF-8
Идентификатор кодека : S_TEXT/UTF8
Идентификатор кодека/Информация : UTF-8 Plain Text
Продолжительность : 50 м. 47 с.
Битрейт : 57 бит/сек
ElementCount : 774
Размер потока : 21,5 Кбайт (0%)
Язык : English
Default : Нет
Forced : Нет
Раздача ведётся путём добавления новых серий; при каждом добавлении создаётся новый торрент.
Чтобы начать докачку новой серии, пользователям необходимо сделать следующее:
1. остановить скачивание,
2. удалить старый торрент у себя из клиента (старые серии удалять не надо),
3. скачать новый торрент и запустить его у себя в клиенте вместо старого, при этом указать клиенту путь в старую папку, куда и должно происходить скачивание новых серий.

Ваш клиент при этом должен произвести хеширование (проверку) старой папки (если не производит сам - помогите ему сделать это), и будет докачивать только те серии которых у вас ещё нет. Старые серии при этом не удаляются, а продолжают раздаваться!

Eсли вы уже удалили старые серии, то предотвратить повторную закачку старых серий можно, отжав галочку в соответствующих местах при запуске нового торрента. По возможности, желательно не удалять старые серии как можно дольше, чтобы релизёр не столько продолжал раздавать старые серии, а смог сконцентрироваться на новых.

Совет для тех, кто не хочет ждать перехеширования:
Создайте ещё одну папку рядом с папкой сериала (рядом, а не в ней!!!). Каждую новую серию после удачной загрузки копируйте в новую папку так чтобы ваша основная папка всегда была пуста. Когда ваш новый торрент предложит вам закачать все файлы, выберете только последнюю. Для сидирования же укажите адрес новой папки.

Как закачать отдельный файл из торрента или докачать ранее пропущенные файлы торрента!
1. Открыть торрент
2. Снять галки с тех файлов торрента, которые мы не хотим закачивать. Оставляем только на нужных нам файлах (файле).
3. Нажать О.К.

В клиенте utorrent

Инструкция

1) Открыть торрент


2) Снять галки с тех файлов торрента, которые мы не хотим закачивать:

* либо вручную, снимая с каждого файла галку( скрин №1)
* либо, нажав кнопку "Снять метки (Select None)", сняв сразу со всех файлов(скрин №2)
№1

№2

Оставляем только на нужных нам файлах (файле).

3)Нажать О.К
Приятного просмотра!!!piratbit.pw



Скачать Титаны через торрент https://i1.imageban.ru/out/2019/09/10/27dd3402034dad54012e58e8aee7bc38.png Скачать фильм Титаны через торрент бесплантно в хорошем качестве Описание:В надежде остановить своего отца — древнего демона Тригона — обладательница невероятных способностей девушка Рэйвен обращается за ... 10 10 3
Торрент: Зарегистрирован [2019-11-16 05:13] · скачан: 6 раз
Статус: √ проверено
Размер: 12.68 GB
Как cкачать? Как скачать Титаны через торрент | qTorrent

% Раздел Тема Автор DL S | L
Зарубежные сериалы [ 26.3 GB ] Титаны / Titans / Сезон: 2 / Серии: 1-10 из 13 [2019 WEB-DLRip 1080p] MVO [LostFilm] bober100 Скачать
2 | 0
Зарубежные сериалы [ 35.95 GB ] Титаны / Titans / Сезон: 2 / Серии: 1-10 из 13 [2019 UHD WEB-DL 2160p] MVO [LostFilm] bober100 Скачать
1 | 0
Зарубежные сериалы [ 20.96 GB ] Титаны / Titans / Сезон: 2 / Серии: 1-11 из 13 [2019 WEB-DL 1080p] MVO [TVShows] bober100 Скачать
1 | 2


>> Регистрируемся здесь <<






Отзывы и комментарии о схеме читаем и пишем здесь: ---> Отзывы и комментарии о схеме

Новые благодарочки в телеграм довольных пользователей:
скриншот   скриншот   скриншот   скриншот   скриншот
    Дорогой пользователь! Огромная просьба, поблагодарите релизера, оцените раздачу и оставьте свои комментарий, если Вы скачали Титаны через торрент бесплатно! Внесите свою лепту в развитие PiratBit!
    Комментировать посты могут только пользователи прошедшие не сложную регистрацию
    Показать сообщения:    

    Титаны через торрент
    Скачать бесплатно Титаны
    Титаны скачать торрент
    Титаны смотреть онлайн
    Cкачать фильм Титаны бесплатно
    Титаны скачать торрент в хорошем качестве
    Титаны смотреть онлайн бесплатно в хорошем качестве


    Вы не можете начинать темы
    Вы не можете отвечать на сообщения
    Вы не можете редактировать свои сообщения
    Вы не можете удалять свои сообщения
    Вы не можете голосовать в опросах
    Вы не можете прикреплять файлы к сообщениям
    Вы можете скачивать файлы