1 сезон

1 сезон

iTunes

1

КиноПоиск HD

Кинопоиск HD

iTunes

13

1 сезон

RePack

30

Ultimate

ВАЖНО

ИГРА 18+

pack

RePack

MK11
pack

Легкие деньги

RePack

jed

RePack

fifa19

RePack

RDR2

RePack

NEED FOR SPEED™ PAYBACK

4 сезон

9 сезон

Бесстыжие 9 сезон

Все сериалы

все сериалы на PB.wtf

RePack

FAR CRY 5
  
Magnet ссылка

Колодец смерти / The Dead Pit (Бретт Леонард) [1989, ужасы, BDRip 1080p by msltel] 4 x AVO piratbit.pw

Колодец смерти через торрент piratbit.pw

Размер: 12.79 GB | Добавлен: 1 год 6 мес. назад | Торрент скачан:4 раза
Скачать  

10-10-2019 06:59 Колодец смерти Скачать торрент  

Название: Колодец смерти
Оригинальное название: The Dead Pit
Год выпуска: 1989
Страна: США
Жанр: ужасы
Продолжительность: 01:41:38
Перевод: авторский

Режиссер: Бретт Леонард
В ролях: Джереми Слейт, Дэнни Гокнауэр, Стефен Грегори Фостер, Шерил Лоусон, Геа Гец, Джоэн Бехтел, Мара Эверетт, Рэнди Фонтана, Майкл Джейкобс, Фредерик Додж

О фильме: Доктор Ремзи проводил бесчеловечные опыты с пациентами психиатрической клиники, за что и был убит коллегой доктором Сваном в своей подземной лаборатории. Спустя двадцать лет в ту же клинику попадает девушка по имени Джейн. Она не сумасшедшая, просто у нее отказала память. В лечебнице у девушки начинаются кошмары и видения, но это только начало того ужаса, в который ей предстоит окунуться. Доктор Ремзи вернулся! И вернулся он не с пустыми руками, а со своими любимыми инструментами и целой толпой своих постоянных пациентов...



Качество: BDRip 1080p
Формат: MKV
Видео: MPEG-4 AVC, 15.7 Mбит/с, 1920x1080, 23.976 кадр/с
Аудио 1: русский, AC3, 192 kbps, 2 ch, 48 kHz [авторский, Антон Алексеев]
Аудио 2: русский, AC3, 192 kbps, 2 ch, 48 kHz [авторский, Михаил Иванов]
Аудио 3: русский, AC3, 192 kbps, 2 ch, 48 kHz [авторский, Александр Кашкин]
Аудио 4: русский, AC3, 192 kbps, 2 ch, 48 kHz [авторский, Сергей Кузнецов]
Аудио 5: английский, DTS, 1509 kbps, 2 ch, 48 kHz [оригинал]
Главы/чаптеры
Общее
Уникальный идентификатор : 254545798683467778878653588052411155628 (0xBF7FBCD2B6DE8AF58D5CF4B6C3A004AC)
Полное имя : D:\Video\Колодец смерти.1989.BDRip 1080p by msltel.mkv
Формат : Matroska
Версия формата : Version 4
Размер файла : 12,8 Гбайт
Продолжительность : 1 ч. 41 м.
Общий поток : 18,0 Мбит/сек
Название фильма : Rip by msltel
Дата кодирования : UTC 2019-10-10 05:07:02
Программа кодирования : mkvmerge v8.2.0 ('World of Adventure') 64bit
Библиотека кодирования : libebml v1.3.1 + libmatroska v1.4.2

Видео
Идентификатор : 1
Формат : AVC
Формат/Информация : Advanced Video Codec
Профиль формата : High@L4.1
Настройки формата : CABAC / 4 Ref Frames
Параметр CABAC формата : Да
Параметр RefFrames формата : 4 кадра
Идентификатор кодека : V_MPEG4/ISO/AVC
Продолжительность : 1 ч. 41 м.
Битрейт : 15,7 Мбит/сек
Ширина : 1920 пикселей
Высота : 1080 пикселей
Соотношение сторон : 16:9
Режим частоты кадров : Постоянный
Частота кадров : 23,976 (24000/1001) кадра/сек
Цветовое пространство : YUV
Субдискретизация насыщенности : 4:2:0
Битовая глубина : 8 бит
Тип развёртки : Прогрессивная
Бит/(Пиксели*Кадры) : 0.317
Размер потока : 11,2 Гбайт (87%)
Библиотека кодирования : x264 core 157 r2935 545de2f
Настройки программы : cabac=1 / ref=4 / deblock=1:-2:-2 / analyse=0x3:0x113 / me=umh / subme=11 / psy=1 / psy_rd=1.00:0.15 / mixed_ref=1 / me_range=32 / chroma_me=1 / trellis=2 / 8x8dct=1 / cqm=0 / deadzone=21,11 / fast_pskip=0 / chroma_qp_offset=-3 / threads=6 / lookahead_threads=1 / sliced_threads=0 / nr=0 / decimate=1 / interlaced=0 / bluray_compat=0 / constrained_intra=0 / bframes=8 / b_pyramid=2 / b_adapt=2 / b_bias=0 / direct=1 / weightb=1 / open_gop=0 / weightp=2 / keyint=230 / keyint_min=23 / scenecut=40 / intra_refresh=0 / rc_lookahead=40 / rc=crf / mbtree=1 / crf=18.0 / qcomp=0.60 / qpmin=0 / qpmax=69 / qpstep=4 / vbv_maxrate=50000 / vbv_bufsize=62500 / crf_max=0.0 / nal_hrd=none / filler=0 / ip_ratio=1.40 / aq=1:1.00
Язык : English
Default : Да
Forced : Нет

Аудио #1
Идентификатор : 2
Формат : AC-3
Формат/Информация : Audio Coding 3
Коммерческое название : Dolby Digital
Идентификатор кодека : A_AC3
Продолжительность : 1 ч. 41 м.
Вид битрейта : Постоянный
Битрейт : 192 Кбит/сек
Каналы : 2 канала
ChannelLayout : L R
Частота : 48,0 КГц
Частота кадров : 31,250 кадров/сек (1536 SPF)
Метод сжатия : С потерями
Размер потока : 140 Мбайт (1%)
Заголовок : Антон Алексеев
Язык : Russian
ServiceKind/String : Complete Main
Default : Да
Forced : Нет

Аудио #2
Идентификатор : 3
Формат : AC-3
Формат/Информация : Audio Coding 3
Коммерческое название : Dolby Digital
Идентификатор кодека : A_AC3
Продолжительность : 1 ч. 41 м.
Вид битрейта : Постоянный
Битрейт : 192 Кбит/сек
Каналы : 2 канала
ChannelLayout : L R
Частота : 48,0 КГц
Частота кадров : 31,250 кадров/сек (1536 SPF)
Метод сжатия : С потерями
Размер потока : 140 Мбайт (1%)
Заголовок : Михаил Иванов
Язык : Russian
ServiceKind/String : Complete Main
Default : Нет
Forced : Нет

Аудио #3
Идентификатор : 4
Формат : AC-3
Формат/Информация : Audio Coding 3
Коммерческое название : Dolby Digital
Идентификатор кодека : A_AC3
Продолжительность : 1 ч. 41 м.
Вид битрейта : Постоянный
Битрейт : 192 Кбит/сек
Каналы : 2 канала
ChannelLayout : L R
Частота : 48,0 КГц
Частота кадров : 31,250 кадров/сек (1536 SPF)
Метод сжатия : С потерями
Размер потока : 140 Мбайт (1%)
Заголовок : Александр Кашкин
Язык : Russian
ServiceKind/String : Complete Main
Default : Нет
Forced : Нет

Аудио #4
Идентификатор : 5
Формат : AC-3
Формат/Информация : Audio Coding 3
Коммерческое название : Dolby Digital
Идентификатор кодека : A_AC3
Продолжительность : 1 ч. 41 м.
Вид битрейта : Постоянный
Битрейт : 192 Кбит/сек
Каналы : 2 канала
ChannelLayout : L R
Частота : 48,0 КГц
Частота кадров : 31,250 кадров/сек (1536 SPF)
Метод сжатия : С потерями
Размер потока : 140 Мбайт (1%)
Заголовок : Сергей Кузнецов
Язык : Russian
ServiceKind/String : Complete Main
Default : Нет
Forced : Нет

Аудио #5
Идентификатор : 6
Формат : DTS
Формат/Информация : Digital Theater Systems
Идентификатор кодека : A_DTS
Продолжительность : 1 ч. 41 м.
Вид битрейта : Постоянный
Битрейт : 1509 Кбит/сек
Каналы : 2 канала
ChannelLayout : L R
Частота : 48,0 КГц
Частота кадров : 93,750 кадра/сек (512 SPF)
Битовая глубина : 24 бит
Метод сжатия : С потерями
Размер потока : 1,07 Гбайт (8%)
Заголовок : original
Язык : English
Default : Нет
Forced : Нет

Меню
00:00:00.000 : en:Chapter 1
00:08:37.934 : en:Chapter 2
00:16:34.868 : en:Chapter 3
00:22:13.540 : en:Chapter 4
00:28:01.221 : en:Chapter 5
00:35:10.149 : en:Chapter 6
00:41:31.739 : en:Chapter 7
00:51:31.004 : en:Chapter 8
00:57:23.314 : en:Chapter 9
01:03:58.835 : en:Chapter 10
01:13:06.298 : en:Chapter 11
01:18:55.981 : en:Chapter 12
01:25:54.732 : en:Chapter 13
01:33:50.333 : en:Chapter 14
01:38:57.514 : en:Chapter 15
01:41:38.133 : en:Chapter 16
piratbit.pw



Скачать Колодец смерти через торрент https://b.radikal.ru/b25/1910/90/f9d2527df89b.jpg Скачать фильм Колодец смерти через торрент бесплантно в хорошем качестве О фильме: Доктор Ремзи проводил бесчеловечные опыты с пациентами психиатрической клиники, за что и был убит коллегой доктором Сваном в ... 5 10 1
Торрент: Зарегистрирован [2019-10-10 06:59] · скачан: 4 раз
Статус: √ проверено
Размер: 12.79 GB
Как cкачать? Как скачать Колодец смерти через торрент | UTorrent

% Раздел Тема Автор DL S | L
Фильмы с авторской озвучкой [ 4.82 GB ] Колодец смерти / The Dead Pit [1989 BDRip 720p by msltel] 4 x AVO msltel Скачать
1 | 0
Фильмы с авторской озвучкой [ 3 GB ] Колодец смерти / The Dead Pit [1989 BDRip by msltel] 4 x AVO msltel Скачать
1 | 0

28-11-2019 20:33  

Отключить всю рекламу на сайте

    Дорогой пользователь! Огромная просьба, поблагодарите релизера, оцените раздачу и оставьте свои комментарий, если Вы скачали Колодец смерти через торрент бесплатно! Внесите свою лепту в развитие PiratBit!
    Комментировать посты могут только пользователи прошедшие не сложную регистрацию
    Показать сообщения:    

    Колодец смерти через торрент
    Скачать бесплатно Колодец смерти
    Колодец смерти скачать торрент
    Колодец смерти смотреть онлайн
    Cкачать фильм Колодец смерти бесплатно
    Колодец смерти скачать торрент в хорошем качестве
    Колодец смерти смотреть онлайн бесплатно в хорошем качестве


    Вы не можете начинать темы
    Вы не можете отвечать на сообщения
    Вы не можете редактировать свои сообщения
    Вы не можете удалять свои сообщения
    Вы не можете голосовать в опросах
    Вы не можете прикреплять файлы к сообщениям
    Вы можете скачивать файлы