новый адрес пиратбит piratbit
MEGA NEWS Получи личный уникальный адрес сайта и защити себя от блокировок. Внимание количество ограничено!!!

iTunes

1+1

iTunes

мы

iTunes

1

iTunes

Чернобыль

iTunes

Ральф против интернета

Лицензия

ПШазам

Лицензия

Игра престолов

Лицензия

30
pack

ВАЖНО

!!Акция!!

Alien_RageХит недели

RePack

Resident Evil 21

ИГРА 18+

pack

RePack

Metro:Exodus

!!Акция!!

Alien_Rage

RePack

fifa19

RePack

Assassins Creed: Odyssey

RePack

NEED FOR SPEED™ PAYBACK

3 сезон

9 сезон

Бесстыжие 9 сезон

Все сериалы

все сериалы на PB.wtf

RePack

FAR CRY 5
Ребята, катастрофически не хватает 1900р. для оплаты серверов за АВГУСТ (всвязи с блокировками трафик упал в 3 раза), 1-2р., выручайте.
  

Тайная жизнь домашних животных 2 3Д / The Secret Life of Pets 2 3D (Крис Рено, Джонатан дель Валь) [2019, мультфильм, комедия, приключения, семейный, BDRip 1080p] [Half OverUnder] DUB (rus, ukr) [Лицензия] piratbit.pw

Тайная жизнь домашних животных 2 3Д через торрент piratbit.pw

Раздают: 2 [ 171 KB/s ]
Размер: 6.78 GB | Добавлен: 12 д. назад | Торрент скачан:18 раз
Скачать  

10-10-2019 02:36 Тайная жизнь домашних животных 2 3Д Скачать торрент  

Тайная жизнь домашних животных 2

The Secret Life of Pets 2 3D
«Обхохочешься»
Страна: США, Франция, Япония
Жанр: мультфильм, комедия, приключения, семейный
Продолжительность: 01:26:03
Год выпуска: 2019
Перевод: Дублированный | Лицензия
Субтитры:
Вшитые (softsub):
#1 - Русские Форсированные [Ash61] (включены по умолчанию)
#2 - Русские Полные
#3 - Украинские Форсированные [Ash61]
#4 - English Full
#5 - English SDH

Внешние (UTF-8):
#1 - Русские Форсированные [Ash61] (включены по умолчанию)
#2 - Русские Полные
#3 - Украинские Форсированные [Ash61]

Режиссёр: Крис Рено / Chris Renaud, Джонатан дель Валь / Jonathan del Val

rating

В ролях:

Пэттон Освальт (Max, озвучка), Кевин Харт (Snowball, озвучка), Харрисон Форд (Rooster, озвучка), Эрик Стоунстрит (Duke, озвучка), Дженни Слейт (Gidget, озвучка), Тиффани Хэддиш (Daisy, озвучка), Лэйк Белл (Chloe, озвучка), Дэна Карви (Pops, озвучка), Бобби Мойнахан (Mel, озвучка), Хэннибал Бёресс (Buddy, озвучка), Крис Рено (Norman / дополнительные голоса, озвучка), Элли Кемпер (Katie, озвучка)
Описание: Почему человек так долго спит утром? Чем вкусно пахнет? Дай мне, дай, дай, дай! Как заставить человека чесать за ушком весь день? Ой, что это? Ааай, опять мой хвост! Где взять еще вкусняшек? О, мячик-мячик-мячик! Узнайте, что действительно беспокоит ваших животных.

Качество: BDRip 1080p
Формат: MKV

Видео: AVC / 1920х1080p / 23,976 fps / 10.0 Mbps
Аудио#1: - Русский / AC3 / 48 KHz / 5.1 ch / 640 Kbps (Дубляж - BD CEE)
Аудио#2: - Украинский / AC3 / 48 KHz / 2 ch / 192 Kbps (Дубляж) (спасибо Hurtom!)
Аудио#3: - Английский / AC3 / 48 KHz / 5.1 ch / 448 Kbps (Original - BD 3D HK)
Формат 3D: Half OverUnder / Вертикальная анаморфная стереопара
Порядок ракурсов: левый ракурс первый
скриншот  скриншот  скриншот  скриншот  скриншот  

скриншот  скриншот  скриншот  скриншот  скриншот  

скриншот  скриншот  скриншот  скриншот  скриншот  

General
Unique ID : 195139222085084495734880053249937497285 (0x92CE72760CF57FE0848C276B660BDCC5)
Complete name : D:TheSecretLifeOfPets2(2019)3D-hOU(Ash61)TheSecretLifeOfPets2(2019)3D-hOU(Ash61).mkv
Format : Matroska
Format version : Version 2
File size : 6.78 GiB
Duration : 1h 26mn
Overall bit rate : 11.3 Mbps
Movie name : Тайная жизнь домашних животных 2 / The Secret Life of Pets 2 (2019) in 3D
Encoded date : UTC 2019-10-09 21:15:03
Writing application : mkvmerge v5.8.0 ('No Sleep / Pillow') built on Sep 2 2012 15:37:04
Writing library : libebml v1.2.3 + libmatroska v1.3.0

Video
ID : 1
Format : AVC
Format/Info : Advanced Video Codec
Format profile : High@L4.1
Format settings, CABAC : Yes
Format settings, ReFrames : 4 frames
Codec ID : V_MPEG4/ISO/AVC
Duration : 1h 26mn
Bit rate : 10 000 Kbps
Width : 1 920 pixels
Height : 1 080 pixels
Display aspect ratio : 16:9
Frame rate mode : Constant
Frame rate : 23.976 (24000/1001) fps
Color space : YUV
Chroma subsampling : 4:2:0
Bit depth : 8 bits
Scan type : Progressive
Bits/(Pixel*Frame) : 0.201
Stream size : 5.87 GiB (87%)
Title : BDRip by Ash61
Writing library : x264 core 146 r2538 121396c
Encoding settings : cabac=1 / ref=4 / deblock=1:-3:-3 / analyse=0x3:0x113 / me=umh / subme=10 / psy=1 / psy_rd=1.00:0.00 / mixed_ref=1 / me_range=32 / chroma_me=1 / trellis=2 / 8x8dct=1 / cqm=0 / deadzone=21,11 / fast_pskip=0 / chroma_qp_offset=-2 / threads=12 / lookahead_threads=2 / sliced_threads=0 / nr=0 / decimate=0 / interlaced=0 / bluray_compat=0 / constrained_intra=0 / bframes=8 / b_pyramid=2 / b_adapt=2 / b_bias=0 / direct=3 / weightb=1 / open_gop=0 / weightp=2 / keyint=250 / keyint_min=23 / scenecut=40 / intra_refresh=0 / rc_lookahead=60 / rc=2pass / mbtree=0 / bitrate=10000 / ratetol=1.0 / qcomp=0.70 / qpmin=0 / qpmax=69 / qpstep=4 / cplxblur=20.0 / qblur=0.5 / vbv_maxrate=40000 / vbv_bufsize=30000 / nal_hrd=none / filler=0 / frame-packing=4 / ip_ratio=1.40 / pb_ratio=1.30 / aq=1:0.70
Language : English
Default : Yes
Forced : No

Audio #1
ID : 2
Format : AC-3
Format/Info : Audio Coding 3
Mode extension : CM (complete main)
Format settings, Endianness : Big
Codec ID : A_AC3
Duration : 1h 26mn
Bit rate mode : Constant
Bit rate : 640 Kbps
Channel(s) : 6 channels
Channel positions : Front: L C R, Side: L R, LFE
Sampling rate : 48.0 KHz
Frame rate : 31.250 fps (1536 spf)
Compression mode : Lossy
Stream size : 394 MiB (6%)
Title : Дубляж (BD CEE)
Language : Russian
Default : Yes
Forced : No

Audio #2
ID : 3
Format : AC-3
Format/Info : Audio Coding 3
Mode extension : CM (complete main)
Format settings, Endianness : Big
Codec ID : A_AC3
Duration : 1h 26mn
Bit rate mode : Constant
Bit rate : 192 Kbps
Channel(s) : 2 channels
Channel positions : Front: L R
Sampling rate : 48.0 KHz
Frame rate : 31.250 fps (1536 spf)
Compression mode : Lossy
Stream size : 118 MiB (2%)
Title : Дубляж
Language : Ukrainian
Default : No
Forced : No

Audio #3
ID : 4
Format : AC-3
Format/Info : Audio Coding 3
Mode extension : CM (complete main)
Format settings, Endianness : Big
Codec ID : A_AC3
Duration : 1h 26mn
Bit rate mode : Constant
Bit rate : 448 Kbps
Channel(s) : 6 channels
Channel positions : Front: L C R, Side: L R, LFE
Sampling rate : 48.0 KHz
Frame rate : 31.250 fps (1536 spf)
Compression mode : Lossy
Stream size : 276 MiB (4%)
Title : Original (BD 3D)
Language : English
Default : No
Forced : No

Text #1
ID : 5
Format : UTF-8
Codec ID : S_TEXT/UTF8
Codec ID/Info : UTF-8 Plain Text
Title : Форсированные [Ash61]
Language : Russian
Default : Yes
Forced : No

Text #2
ID : 6
Format : UTF-8
Codec ID : S_TEXT/UTF8
Codec ID/Info : UTF-8 Plain Text
Title : Полные
Language : Russian
Default : No
Forced : No

Text #3
ID : 7
Format : UTF-8
Codec ID : S_TEXT/UTF8
Codec ID/Info : UTF-8 Plain Text
Title : Форсированные [Ash61]
Language : Ukrainian
Default : No
Forced : No

Text #4
ID : 8
Format : UTF-8
Codec ID : S_TEXT/UTF8
Codec ID/Info : UTF-8 Plain Text
Title : Full
Language : English
Default : No
Forced : No

Text #5
ID : 9
Format : UTF-8
Codec ID : S_TEXT/UTF8
Codec ID/Info : UTF-8 Plain Text
Title : SDH
Language : English
Default : No
Forced : No

Menu
00:00:00.000 : :1
00:05:34.543 : :2
00:10:07.816 : :3
00:13:26.305 : :4
00:16:39.790 : :5
00:19:56.946 : :6
00:24:10.074 : :7
00:28:15.736 : :8
00:30:54.269 : :9
00:35:15.113 : :10
00:39:55.977 : :11
00:45:47.328 : :12
00:49:51.822 : :13
00:56:54.995 : :14
00:58:35.220 : :15
01:02:48.932 : :16
01:07:16.616 : :17
01:12:48.823 : :18
01:15:21.809 : :19
01:18:10.019 : :20

piratbit.pw



Скачать Тайная жизнь домашних животных 2 3Д через торрент https://a.radikal.ru/a01/1910/16/9b292ac1995e.png Скачать фильм Тайная жизнь домашних животных 2 3Д через торрент бесплантно в хорошем качестве Описание: Почему человек так долго спит утром? Чем вкусно пахнет? Дай мне, дай, дай, дай! Как заставить человека чесать за ушком весь день? ... 10 10 3
Торрент: Зарегистрирован [2019-10-10 02:36] · скачан: 18 раз
Статус: √ проверено
Размер: 6.78 GB
Как cкачать? Как скачать Тайная жизнь домашних животных 2 3Д через торрент | qTorrent

% Раздел Тема Автор DL S | L
3D Мультфильмы [ 10.99 GB ] Тайная жизнь домашних животных 2 в 3Д / The Secret Life of Pets 2 3D [2019 мультфильм BDRip 1080p] OverUnder / Вертикальная стереопара serega768 Скачать
3 | 0


>> Регистрируемся здесь <<






Отзывы и комментарии о схеме читаем и пишем здесь: ---> Отзывы и комментарии о схеме

Новые благодарочки в телеграм довольных пользователей:
скриншот   скриншот   скриншот   скриншот   скриншот
    Дорогой пользователь! Огромная просьба, поблагодарите релизера, оцените раздачу и оставьте свои комментарий, если Вы скачали Тайная жизнь домашних животных 2 3Д через торрент бесплатно! Внесите свою лепту в развитие PiratBit!
    Комментировать посты могут только пользователи прошедшие не сложную регистрацию
    Показать сообщения:    

    Тайная жизнь домашних животных 2 3Д через торрент
    Скачать бесплатно Тайная жизнь домашних животных 2 3Д
    Тайная жизнь домашних животных 2 3Д скачать торрент
    Тайная жизнь домашних животных 2 3Д смотреть онлайн
    Cкачать фильм Тайная жизнь домашних животных 2 3Д бесплатно
    Тайная жизнь домашних животных 2 3Д скачать торрент в хорошем качестве
    Тайная жизнь домашних животных 2 3Д смотреть онлайн бесплатно в хорошем качестве


    Вы не можете начинать темы
    Вы не можете отвечать на сообщения
    Вы не можете редактировать свои сообщения
    Вы не можете удалять свои сообщения
    Вы не можете голосовать в опросах
    Вы не можете прикреплять файлы к сообщениям
    Вы можете скачивать файлы