MEGA SALE -75% Borderlands 3 Super Deluxe всего за 550р. 180 руб. (супер цена). Внимание количество ограничено!!!

iTunes

1+1

iTunes

мы

iTunes

1

iTunes

Чернобыль

iTunes

Ральф против интернета

Лицензия

ПШазам

Лицензия

Игра престолов

Лицензия

30
pack

ВАЖНО

!!Акция!!

Alien_RageХит недели

RePack

Resident Evil 21

ИГРА 18+

pack

RePack

Metro:Exodus

!!Акция!!

Alien_Rage

RePack

fifa19

RePack

Assassins Creed: Odyssey

RePack

NEED FOR SPEED™ PAYBACK

3 сезон

9 сезон

Бесстыжие 9 сезон

Все сериалы

все сериалы на PB.wtf

RePack

FAR CRY 5
Ребята, катастрофически не хватает 1900р. для оплаты серверов за АВГУСТ (всвязи с блокировками трафик упал в 3 раза), 1-2р., выручайте.
  

Бэтвумен / Batwoman / Сезон: 1 / Серия: 1- из 9 (Маркос Сига, Лаура Белси) [2019, фантастика, боевик, драма, криминал, приключения, WEB-DL 1080p] DUB [DoubleRec.Imago] piratbit.pw

Бэтвумен через торрент piratbit.pw

Размер: 2.7 GB | Добавлен: 6 д. назад | Торрент скачан:38 раз
Скачать  

07-10-2019 15:26 Бэтвумен Скачать торрент  

Бэтвумен / Batwoman Год выпуска: 2019
Страна: США
Жанр: фантастика, боевик, драма, криминал, приключения
Продолжительность: ~ 00:43:00
Перевод: Профессиональный (дублированный) | DoubleRec.Imago
Субтитры: Русские (Full), английские (SDH)

Режиссёр: Маркос Сига, Лаура Белси

В ролях: Элизабет Анвейс, Сэм Литтлфилд, Руби Роуз, Брендон Заб, Рэйчел Скарстен, Дюгрей Скотт, Роджер Уиггинс, Джота Тракас, Камрус Джонсон, Меган Тенди, Такая Уайт, Джулиан Пол, Крис Шилдс, Николь Кан, Николас Дохи, Дакота Долби

Описание:
Кэти Кейн — дочь владельца частной охранной компании, которую с позором выгнали из армии. Она возвращается в родной Готэм, лишенный защиты Бэтмена — Тёмный рыцарь пропал без следа три года назад. Пока в городе орудует жестокая банда, Кэти при поддержке гениального Люка Фокса вынуждена взять на себя защиту невинных и стать Бэтвумен.



Качество: WEB-DL 1080p | Batwoman.S01.1080p.AMZN.WEB-DL.DDP5.1.H.264-NTb
Формат: MKV

Видео: AVC, ~ 8243 kbps, 1920x960 (2:1), 23.976 fps
Аудио 1: AC3, 48,0 КГц, 2 ch, 192 kbps - Rus
Аудио 2: E-AC3, 48,0 КГц, 6 ch, 640 kbps - Eng


Реклама: Отсутствует

Спасибо:
01. Пилот | Pilot

Анонс:

02. The Rabbit Hole (04.10.2019)
03. Down, Down, Down (11.10.2019)
04. Who Are You? (18.10.2019)
05. Mine Is a Long and Sad Tale (25.10.2019)
06. I'll Be Judge, I'll Be Jury
07. Tell Me the Truth
08.
09. Crisis on Infinite Earth: Hour Two
Общее
Уникальный идентификатор                 : 177473636851924814258603302423854987382 (0x85842DDD1E34C1048BAD3E3D918A3876)
Полное имя                               : E:\RELEASE\Batwoman.S01.1080p.WEB-DL.DUB.EniaHD\Batwoman.S01E01.Pilot.1080p.WEB-DL.DUB.EniaHD.mkv
Формат                                   : Matroska
Версия формата                           : Version 4
Размер файла                             : 2,70 Гбайт
Продолжительность                        : 42 м. 25 с.
Общий поток                              : 9101 Кбит/сек
Название фильма                          : Пилот
Дата кодирования                         : UTC 2019-10-07 14:20:57
Программа кодирования                    : mkvmerge v37.0.0 ('Leave It') 64-bit
Библиотека кодирования                   : libebml v1.3.9 + libmatroska v1.5.2
Attachments                              : poster.batwomen.png

Видео
Идентификатор                            : 1
Формат                                   : AVC
Формат/Информация                        : Advanced Video Codec
Профиль формата                          : High@L4
Настройки формата                        : CABAC / 4 Ref Frames
Параметр CABAC формата                   : Да
Параметр RefFrames формата               : 4 кадра
Идентификатор кодека                     : V_MPEG4/ISO/AVC
Продолжительность                        : 42 м. 25 с.
Вид битрейта                             : Постоянный
Битрейт                                  : 8243 Кбит/сек
Номинальный битрейт                      : 10000 Кбит/сек
Ширина                                   : 1920 пикселей
Высота                                   : 960 пикселей
Соотношение сторон                       : 2,000
Режим частоты кадров                     : Постоянный
Частота кадров                           : 23,976 (24000/1001) кадра/сек
Цветовое пространство                    : YUV
Субдискретизация насыщенности            : 4:2:0
Битовая глубина                          : 8 бит
Тип развёртки                            : Прогрессивная
Бит/(Пиксели*Кадры)                      : 0.187
Размер потока                            : 2,44 Гбайт (91%)
Заголовок                                : Batwoman.S01E01.Pilot.1080p.WEB-DL.DUB.EniaHD
Язык                                     : English
Default                                  : Да
Forced                                   : Нет
Цветовой диапазон                        : Limited
Основные цвета                           : BT.709
Характеристики трансфера                 : BT.709
Коэффициенты матрицы                     : BT.709

Аудио #1
Идентификатор                            : 2
Формат                                   : AC-3
Формат/Информация                        : Audio Coding 3
Коммерческое название                    : Dolby Digital
Идентификатор кодека                     : A_AC3
Продолжительность                        : 42 м. 25 с.
Вид битрейта                             : Постоянный
Битрейт                                  : 192 Кбит/сек
Каналы                                   : 2 канала
ChannelLayout                            : L R
Частота                                  : 48,0 КГц
Частота кадров                           : 31,250 кадров/сек (1536 SPF)
Метод сжатия                             : С потерями
Размер потока                            : 58,3 Мбайт (2%)
Заголовок                                : AC3 2.0 @ 192 kbps - DUB, DoubleRec.Imago
Язык                                     : Russian
ServiceKind/String                       : Complete Main
Default                                  : Да
Forced                                   : Нет

Аудио #2
Идентификатор                            : 3
Формат                                   : E-AC-3
Формат/Информация                        : Enhanced AC-3
Коммерческое название                    : Dolby Digital Plus
Идентификатор кодека                     : A_EAC3
Продолжительность                        : 42 м. 25 с.
Вид битрейта                             : Постоянный
Битрейт                                  : 640 Кбит/сек
Каналы                                   : 6 каналов
ChannelLayout                            : L R C LFE Ls Rs
Частота                                  : 48,0 КГц
Частота кадров                           : 31,250 кадров/сек (1536 SPF)
Метод сжатия                             : С потерями
Размер потока                            : 194 Мбайт (7%)
Заголовок                                : E-AC3 5.1 @ 640 kbps - Original
Язык                                     : English
ServiceKind/String                       : Complete Main
Default                                  : Нет
Forced                                   : Нет

Текст #1
Идентификатор                            : 4
Формат                                   : UTF-8
Идентификатор кодека                     : S_TEXT/UTF8
Идентификатор кодека/Информация          : UTF-8 Plain Text
Продолжительность                        : 41 м. 53 с.
Битрейт                                  : 88 бит/сек
ElementCount                             : 607
Размер потока                            : 27,0 Кбайт (0%)
Заголовок                                : Full
Язык                                     : Russian
Default                                  : Нет
Forced                                   : Нет

Текст #2
Идентификатор                            : 5
Формат                                   : UTF-8
Идентификатор кодека                     : S_TEXT/UTF8
Идентификатор кодека/Информация          : UTF-8 Plain Text
Продолжительность                        : 42 м. 8 с.
Битрейт                                  : 63 бит/сек
ElementCount                             : 699
Размер потока                            : 19,6 Кбайт (0%)
Заголовок                                : Full SDH
Язык                                     : English
Default                                  : Нет
Forced                                   : Нет
Внимание! Раздача ведётся путём добавления новых серий; при каждом добавлении создfётся новый торрент. Чтобы начать докачку новой серии, пользователям необходимо сделать следующее: (1) остановить скачивание, (2) удалить старый торрент у себя из клиента (старые серии удалять не надо), (3) скачать новый торрент и запустить его у себя в клиенте вместо старого, при этом указать клиенту путь в старую папку куда и должно происходить скачивание новых серий.

Ваш клиент при этом должен произвести хеширование (проверку) старой папки (если не производит сам - помогите ему сделать это), и будет докачивать только те серии которых у вас ещё нет. Старые серии при этом не удаляются, а продолжают раздаваться!

Eсли вы уже удалили старые серии, то предотвратить повторную закачку старых серий можно, отжав галочку в соответсвующих местах при запуске нового торрента.
piratbit.pw



Скачать Бэтвумен через торрент https://funkyimg.com/i/2XAxi.png Скачать фильм Бэтвумен через торрент бесплантно в хорошем качестве Описание:Кэти Кейн — дочь владельца частной охранной компании, которую с позором выгнали из армии. Она возвращается в родной Готэм, ... 10 10 4
Торрент: Зарегистрирован [2019-10-07 15:26] · скачан: 38 раз
Статус: √ проверено
Размер: 2.7 GB
Как cкачать? Как скачать Бэтвумен через торрент | qTorrent

% Раздел Тема Автор DL S | L
Зарубежные сериалы [ 2.82 GB ] Бэтвумен / Batwoman / Сезон: 1 / Серия: 1 из 9 [2019 WEB-DL 1080p] MVO [Lostfilm] bober100 Скачать
1 | 0
Зарубежные сериалы [ 1.33 GB ] Бэтвумен / Batwoman / Сезон: 1 / Серия: 1 из 9 [2019 WEB-DL 720p] MVO [Lostfilm] bober100 Скачать
2 | 0
Зарубежные сериалы [ 2.67 GB ] Бэтвумен / Batwoman / Сезон: 1 / Серия: 1 из 9 [2019 WEB-DL 1080p] MVO [Jaskier] bober100 Скачать
2 | 0
Зарубежные сериалы [ 1.26 GB ] Бэтвумен / Batwoman / Сезон: 1 / Серия: 1 из 9 [2019 WEB-DL 720p] MVO [Jaskier] bober100 Скачать
1 | 0
Зарубежные сериалы [ 507 MB ] Бэтвумен / Batwoman / Сезон: 1 / Серия: 1 из 9 [2019 WEB-DLRip] MVO [Jaskier] bober100 Скачать
1 | 0
Зарубежные сериалы [ 1.28 GB ] Бэтвумен / Batwoman / Сезон: 1 / Серия: 1 из 9 [2019 WEB-DL 720p] DUB [DoubleRec.Imago] bober100 Скачать
2 | 0
T Зарубежные сериалы [ 488 MB ] Бэтвумен / Batwoman / Сезон: 1 / Серии: 1- из 9 [2019 HDTVRip] DVO [Kerob] bober100 Скачать
2 | 0


>> Регистрируемся здесь <<






Отзывы и комментарии о схеме читаем и пишем здесь: ---> Отзывы и комментарии о схеме

Новые благодарочки в телеграм довольных пользователей:
скриншот   скриншот   скриншот   скриншот   скриншот

07-10-2019 16:17 Бэтвумен Скачать торрент  

"...Тёмный рыцарь пропал без следа три года назад..."

Он пьет винишко в Италии с Селиной Кайл, Альфред не даст соврать.

P.S. Пещера отдана на откуп Робину piratbit.pw



07-10-2019 17:18 Бэтвумен Скачать торрент  

Рэйтингом на IMDb всё сразу понятно становиться. piratbit.pw



09-10-2019 21:34 Бэтвумен Скачать торрент  

Тут много букв и спойлеры.
Ребята... Это плевок, нет, даже серок в душу фанатам Бэтса. И дело не в том, что тёлка, что лесбуха, что типа сильная и независимая. Я рос на Зене - вот пример сильной женщины. А тут... Бэтс оказывается сыкло, и не просто сыкло, а тупое сыкло. Силы нет, ума нет, и сыкло. Феминистки радуйтесь - пришла сильная женщина.
Сама бэтсукха - как уже сказал, любит девочек. Ну и ладно, чё. Но ведёт себя как мужиковатая бабища, которую никто не "любит". Короче, из категории "попочек" или как у них там это называется. Что вызывает отвращение на генном уровне.
Дальше. Она настолько вся крутая, что всем пыздулей раздаёт направо и налево и вообще в ледяной воде и глазом не моргнёт. И её вышибли из военной академии. А в чвк не взял папочка, ибо боится за неё. Но она же так крута, что думает будто слишком хороша для всего этого, поэтому её и не берут.
Бэтс. Пара "флэшбеков" про то, какой он сук сыкун. И тупой. Не, реально дятлом выстависили.
Альфреда нет. Вместо него негритёнок. Слабеньний такой, в очёчках. Блин, надо же брать чырных в фильм, так? Чтобы не было расизма, так? Так мля чёрный негр прислуживает лесбухе! Бац! Вот это поворот. Оказывается теперь феминистки важнее негров.
Само качество съёмки... Ну, сами увидите. В лучших традициях Азайлума. Не, даже они снимают лучше.
Короче хз, хз ребята...
Шумахерский Бэтс в гейском костюмчике просто шедеврален по-сравнению с этим.
Нам насрали в душу.
Всё, ушёл смотреть порно-пародию. Там хоть снято всё прилично.
piratbit.pw



    Дорогой пользователь! Огромная просьба, поблагодарите релизера, оцените раздачу и оставьте свои комментарий, если Вы скачали Бэтвумен через торрент бесплатно! Внесите свою лепту в развитие PiratBit!
    Комментировать посты могут только пользователи прошедшие не сложную регистрацию
    Показать сообщения:    

    Бэтвумен через торрент
    Скачать бесплатно Бэтвумен
    Бэтвумен скачать торрент
    Бэтвумен смотреть онлайн
    Cкачать фильм Бэтвумен бесплатно
    Бэтвумен скачать торрент в хорошем качестве
    Бэтвумен смотреть онлайн бесплатно в хорошем качестве


    Вы не можете начинать темы
    Вы не можете отвечать на сообщения
    Вы не можете редактировать свои сообщения
    Вы не можете удалять свои сообщения
    Вы не можете голосовать в опросах
    Вы не можете прикреплять файлы к сообщениям
    Вы можете скачивать файлы