Marvel's Avengers Deluxe Edition (супер цена) 159р. Внимание количество ограничено!!!

2 сезон

iTunes

iTunes

1

iTunes

iTunes

iTunes

WEBRip

iTunes

30
pack

Новость дня

ВАЖНО

!!Акция!!

Alien_RageХит недели

RePack

Horizon Zero Dawn

ИГРА 18+

pack

RePack

jed

!!Акция!!

Alien_Rage

RePack

fifa19

RePack

Assassins Creed: Odyssey

RePack

NEED FOR SPEED™ PAYBACK

4 сезон

9 сезон

Бесстыжие 9 сезон

Все сериалы

все сериалы на PB.wtf

RePack

FAR CRY 5
  

Angry Birds в кино / Angry Birds (Клэй Кэйтис , Фергал Рейли) [2016, мультфильм, боевик, комедия, UHD BDRemux 2160p] Дубляж (rus, ukr) [Лицензия] piratbit.pw

Angry Birds в кино через торрент piratbit.pw

Размер: 45.11 GB | Добавлен: 11 мес. назад | Торрент скачан:1 раз
Скачать  

07-10-2019 01:41 Angry Birds в кино Скачать торрент  

Angry Birds в киноAngry Birds«Что такие сердитые?»
Год выпуска: 2016
Страна: США, Финляндия
Жанр: мультфильм, боевик, комедия, семейный
Продолжительность: 01:37:14
Перевод: Профессиональный (дублированный) UHD Blu-Ray
Субтитры: русские (forced, full), украинские, английские (full, SDH)
Режиссер: Клэй Кэйтис , Фергал Рейли

В ролях:

Джейсон Судейкис (Red, озвучка), Джош Гад (Chuck, озвучка), Дэнни МакБрайд (Bomb, озвучка), Майя Рудольф (Matilda, озвучка), Билл Хейдер (Leonard, озвучка), Питер Динклэйдж (Mighty Eagle, озвучка), Шон Пенн (Terence, озвучка), Кигэн-Майкл Ки (Judge Peckinpah, озвучка), Кейт МакКиннон (Stella / Eva the Birthday Mom, озвучка), Тони Хейл (Ross / Cyrus / Mime, озвучка), Хэннибал Бёресс (Edward the Birthday Dad, озвучка), Айк Баринхолц (Tiny, озвучка)
Описание:
Из-за своего буйного нрава Ред постоянно попадает в различные передряги. После очередного фонтана агрессии местный суд приговаривает его к бессрочному посещению курсов управления гневом. Между делом, на птичий остров приплывают зеленые свиньи и обманом выкрадывают у птичек все их яйца. Ред и его друзья отправляются на поиски легендарного Могучего Орла, чтобы заручиться его поддержкой и вернуть похищенное.
Рейтинг:

MPAA: PG - Рекомендуется присутствие родителей
Качество: UHD BDRemux 2160p
Формат: MKV
Видео: MPEG-H HEVC Video / 59687 kbps / 3840x2160 / 23.976 fps / 16:9 / Main 10 @ Level 5.1 @ High / 4:2:0 / 10 bits / HDR10 / BT.2020 /
Аудио 1: Russian AC3 / 5.1 / 48 kHz / 640 kbps / 16-bit |Dub, UHD Blu-Ray|
Аудио 2: Ukrainian AC3 / 5.1 / 48 kHz / 640 kbps / 16-bit |Dub, UHD Blu-Ray|
Аудио 3: English Dolby Atmos/TrueHD Audio / 7.1-Atmos / 48 kHz / 5387 kbps / 24-bit |original|
Аудио 4: English AC3 Core: 5.1 / 48 kHz / 640 kbps |original|
Навигация по главам: есть

Общее
Уникальный идентификатор : 134485723854047297294923428068231061053 (0x652D021DBDAC2B51FC832D8442019E3D)
Полное имя : H:\UHD\Angry Birds в кино.2016.UHD.Blu-Ray.Remux.2160p.mkv
Формат : Matroska
Версия формата : Version 4
Размер файла : 45,1 Гбайт
Продолжительность : 1 ч. 37 м.
Режим общего битрейта : Переменный
Общий поток : 66,4 Мбит/сек
Дата кодирования : UTC 2019-10-05 08:17:34
Программа кодирования : mkvmerge v37.0.0 ('Leave It') 64-bit
Библиотека кодирования : libebml v1.3.9 + libmatroska v1.5.2
Attachments : poster.jpg

Видео
Идентификатор : 1
Формат : HEVC
Формат/Информация : High Efficiency Video Coding
Профиль формата : Main 10@L5.1@High
HDR_Format/String : SMPTE ST 2086, HDR10 compatible
Идентификатор кодека : V_MPEGH/ISO/HEVC
Продолжительность : 1 ч. 37 м.
Битрейт : 59,7 Мбит/сек
Ширина : 3840 пикселей
Высота : 2160 пикселей
Соотношение сторон : 16:9
Режим частоты кадров : Постоянный
Частота кадров : 23,976 (24000/1001) кадра/сек
Цветовое пространство : YUV
Субдискретизация насыщенности : 4:2:0 (Type 2)
Битовая глубина : 10 бит
Бит/(Пиксели*Кадры) : 0.300
Размер потока : 40,5 Гбайт (90%)
Default : Да
Forced : Нет
Цветовой диапазон : Limited
Основные цвета : BT.2020
Характеристики трансфера : PQ
Коэффициенты матрицы : BT.2020 non-constant
MasteringDisplay_ColorPrimaries : Display P3
MasteringDisplay_Luminance : min: 0.0050 cd/m2, max: 4000 cd/m2
MaxCLL : 414 cd/m2
MaxFALL : 233 cd/m2

Аудио #1
Идентификатор : 2
Формат : AC-3
Формат/Информация : Audio Coding 3
Коммерческое название : Dolby Digital
Идентификатор кодека : A_AC3
Продолжительность : 1 ч. 37 м.
Вид битрейта : Постоянный
Битрейт : 640 Кбит/сек
Каналы : 6 каналов
ChannelLayout : L R C LFE Ls Rs
Частота : 48,0 КГц
Частота кадров : 31,250 кадров/сек (1536 SPF)
Метод сжатия : С потерями
Размер потока : 445 Мбайт (1%)
Заголовок : Dub, UHD Blu-Ray
Язык : Russian
ServiceKind/String : Complete Main
Default : Да
Forced : Нет

Аудио #2
Идентификатор : 3
Формат : AC-3
Формат/Информация : Audio Coding 3
Коммерческое название : Dolby Digital
Идентификатор кодека : A_AC3
Продолжительность : 1 ч. 37 м.
Вид битрейта : Постоянный
Битрейт : 640 Кбит/сек
Каналы : 6 каналов
ChannelLayout : L R C LFE Ls Rs
Частота : 48,0 КГц
Частота кадров : 31,250 кадров/сек (1536 SPF)
Метод сжатия : С потерями
Размер потока : 445 Мбайт (1%)
Заголовок : Dub, UHD Blu-Ray
Язык : Ukrainian
ServiceKind/String : Complete Main
Default : Нет
Forced : Нет

Аудио #3
Идентификатор : 4
Формат : MLP FBA 16-ch
Формат/Информация : Meridian Lossless Packing FBA with 16-channel presentation
Коммерческое название : Dolby TrueHD with Dolby Atmos
Идентификатор кодека : A_TRUEHD
Продолжительность : 1 ч. 37 м.
Вид битрейта : Переменный
Битрейт : 4747 Кбит/сек
Максимальный битрейт : 6972 Кбит/сек
Каналы : 8 каналов
ChannelLayout : L R C LFE Ls Rs Lb Rb
Частота : 48,0 КГц
Частота кадров : 1200,000 кадров/сек (40 SPF)
Метод сжатия : Без потерь
Размер потока : 3,22 Гбайт (7%)
Язык : English
Default : Нет
Forced : Нет
NumberOfDynamicObjects : 11
BedChannelCount/String : 1 канал
BedChannelConfiguration : LFE

Аудио #4
Идентификатор : 5
Формат : AC-3
Формат/Информация : Audio Coding 3
Коммерческое название : Dolby Digital
Идентификатор кодека : A_AC3
Продолжительность : 1 ч. 37 м.
Вид битрейта : Постоянный
Битрейт : 640 Кбит/сек
Каналы : 6 каналов
ChannelLayout : L R C LFE Ls Rs
Частота : 48,0 КГц
Частота кадров : 31,250 кадров/сек (1536 SPF)
Метод сжатия : С потерями
Размер потока : 445 Мбайт (1%)
Язык : English
ServiceKind/String : Complete Main
Default : Нет
Forced : Нет

Текст #1
Идентификатор : 6
Формат : UTF-8
Идентификатор кодека : S_TEXT/UTF8
Идентификатор кодека/Информация : UTF-8 Plain Text
Продолжительность : 1 ч. 25 м.
Битрейт : 2 бит/сек
ElementCount : 54
Размер потока : 1,71 Кбайт (0%)
Заголовок : forced
Язык : Russian
Default : Да
Forced : Нет

Текст #2
Идентификатор : 7
Формат : UTF-8
Идентификатор кодека : S_TEXT/UTF8
Идентификатор кодека/Информация : UTF-8 Plain Text
Продолжительность : 1 ч. 29 м.
Битрейт : 99 бит/сек
ElementCount : 1579
Размер потока : 64,7 Кбайт (0%)
Заголовок : full
Язык : Russian
Default : Нет
Forced : Нет

Текст #3
Идентификатор : 8
Формат : UTF-8
Идентификатор кодека : S_TEXT/UTF8
Идентификатор кодека/Информация : UTF-8 Plain Text
Продолжительность : 1 ч. 29 м.
Битрейт : 97 бит/сек
ElementCount : 1579
Размер потока : 63,8 Кбайт (0%)
Язык : Ukrainian
Default : Нет
Forced : Нет

Текст #4
Идентификатор : 9
Формат : UTF-8
Идентификатор кодека : S_TEXT/UTF8
Идентификатор кодека/Информация : UTF-8 Plain Text
Продолжительность : 1 ч. 32 м.
Битрейт : 72 бит/сек
ElementCount : 1820
Размер потока : 49,1 Кбайт (0%)
Заголовок : full
Язык : English
Default : Нет
Forced : Нет

Текст #5
Идентификатор : 10
Формат : UTF-8
Идентификатор кодека : S_TEXT/UTF8
Идентификатор кодека/Информация : UTF-8 Plain Text
Продолжительность : 1 ч. 32 м.
Битрейт : 90 бит/сек
ElementCount : 2275
Размер потока : 61,6 Кбайт (0%)
Заголовок : SDH
Язык : English
Default : Нет
Forced : Нет

Меню
00:00:00.000 : :Chapter 01
00:07:05.091 : :Chapter 02
00:13:38.108 : :Chapter 03
00:20:22.638 : :Chapter 04
00:25:38.620 : :Chapter 05
00:32:57.392 : :Chapter 06
00:38:34.812 : :Chapter 07
00:41:36.327 : :Chapter 08
00:47:12.955 : :Chapter 09
00:52:04.287 : :Chapter 10
00:56:07.697 : :Chapter 11
00:59:08.711 : :Chapter 12
01:03:43.319 : :Chapter 13
01:11:45.801 : :Chapter 14
01:18:55.522 : :Chapter 15
01:23:54.821 : :Chapter 16
piratbit.pw



Скачать Angry Birds в кино через торрент https://d.radikal.ru/d29/1910/0d/6e9e93408a28.png Скачать фильм Angry Birds в кино через торрент бесплантно в хорошем качестве Описание: Из-за своего буйного нрава Ред постоянно попадает в различные передряги. После очередного фонтана агрессии местный суд ... 10 10 1
Торрент: Зарегистрирован [2019-10-07 01:41] · скачан: 1 раз
Статус: √ проверено
Размер: 45.11 GB
Как cкачать? Как скачать Angry Birds в кино через торрент | qTorrent

% Раздел Тема Автор DL S | L
Мультфильмы (48-60 fps) [ 15.43 GB ] Angry Birds 2 в кино / The Angry Birds Movie 2 [2019 мультфильм BDRip 1080p 60 fps] DUB sheker187 Скачать
1 | 0
Ultra HD (UHD: 2K, 4K, 8K) [ 14.32 GB ] Angry Birds 2 в кино / The Angry Birds Movie 2 [2019 мультфильм UHD BDRip 2160p] [SDR] DUB bober100 Скачать
2 | 0
Ultra HD (UHD: 2K, 4K, 8K) [ 9.87 GB ] Angry Birds 2 в кино / The Angry Birds Movie 2 [2019 мультфильм UHD BDRip 2160p] DUB sheker187 Скачать
2 | 0
Ultra HD (UHD: 2K, 4K, 8K) [ 37.6 GB ] Angry Birds 2 в кино / The Angry Birds Movie 2 [2019 мультфильм UHD BDRemux 2160p] DUB bober100 Скачать
1 | 0
Иностранные мультфильмы [ 1.42 GB ] Angry Birds 2 в кино / The Angry Birds Movie 2 [2019 мультфильм BDRip] - Twi7ter Скачать
109 | 0
Иностранные мультфильмы [ 1.46 GB ] Angry Birds 2 в кино / The Angry Birds Movie 2 [2019 мультфильм HDRip] bober100 Скачать
80 | 0
Зарубежные Мультфильмы (BDRip 1080p, 720p, Blu-ray, BD-Remux) [ 8.38 GB ] Angry Birds 2 в кино / The Angry Birds Movie 2 [2019 мультфильм BDRip 1080p] DUB bober100 Скачать
4 | 0

28-11-2019 20:33  

Отключить всю рекламу на сайте

    Дорогой пользователь! Огромная просьба, поблагодарите релизера, оцените раздачу и оставьте свои комментарий, если Вы скачали Angry Birds в кино через торрент бесплатно! Внесите свою лепту в развитие PiratBit!
    Комментировать посты могут только пользователи прошедшие не сложную регистрацию
    Показать сообщения:    

    Angry Birds в кино через торрент
    Скачать бесплатно Angry Birds в кино
    Angry Birds в кино скачать торрент
    Angry Birds в кино смотреть онлайн
    Cкачать фильм Angry Birds в кино бесплатно
    Angry Birds в кино скачать торрент в хорошем качестве
    Angry Birds в кино смотреть онлайн бесплатно в хорошем качестве


    Вы не можете начинать темы
    Вы не можете отвечать на сообщения
    Вы не можете редактировать свои сообщения
    Вы не можете удалять свои сообщения
    Вы не можете голосовать в опросах
    Вы не можете прикреплять файлы к сообщениям
    Вы можете скачивать файлы