Ссылка на приватное зеркало нашего сайта всего за 1$. Внимание количество ограничено!!!

2 сезон

iTunes

iTunes

1

iTunes

iTunes

iTunes

WEBRip

iTunes

30
pack

Вам бонус

ВАЖНО

!!Акция!!

Alien_RageХит недели

RePack

Horizon Zero Dawn

ИГРА 18+

pack

RePack

jed

!!Акция!!

Alien_Rage

RePack

fifa19

RePack

Assassins Creed: Odyssey

RePack

NEED FOR SPEED™ PAYBACK

4 сезон

9 сезон

Бесстыжие 9 сезон

Все сериалы

все сериалы на PB.wtf

RePack

FAR CRY 5
  

Притяжение (Фёдор Бондарчук) [2017, фантастика, BDRip 1080p] [Лицензия] piratbit.pw

Притяжение через торрент piratbit.pw

Размер: 13.2 GB | Добавлен: 11 мес. назад | Торрент скачан:95 раз
Скачать  

06-10-2019 05:30 Притяжение Скачать торрент  

Притяжение«Земля – землянам!» Год выпуска: 2017
Страна: Россия
Жанр: фантастика
Продолжительность: 02:12:32
Перевод: Не требуется | Лицензия
Субтитры: отсутствуют

Режиссер: Фёдор Бондарчук

rating

В ролях:

Ирина Старшенбаум (Юля Лебедева), Александр Петров (Артём), Риналь Мухаметов (Хэкон / Харитон), Олег Меньшиков (полковник Лебедев), Евгений Сангаджиев (Питон), Алексей Маслодудов, Никита Кукушкин (Руслан), Евгений Михеев («Гугл»), Антон Шпиньков, Евгений Коряковский (учитель), Дарья Руденок (Светлана Морозова), Людмила Максакова (Люба, бабушка Юли Лебедевой)
Описание: «…Как только что стало известно, сбитый над Москвой неопознанный объект имеет, возможно, внеземное происхождение. Большая часть столичного Чертанова оцеплена, к месту крушения стягиваются представители силовых структур, решается вопрос об эвакуации местных жителей. По словам нашего источника в Минобороны, сейчас специальная комиссия пытается вступить в контакт с так называемыми «гостями». В эти минуты мы готовим экстренный выпуск новостей и о развитии событий вы узнаете первыми…»

Качество: BDRip 1080p
Формат: MKV

Видео: MPEG-4 AVC, 12107 Кбит/с, 1920x808, 24 кадр/с
Аудио#1: AC3, 6 ch, 640 Кбит/с - Русский
Аудио#2: DTS, 6 ch, 1510 Кбит/с - Русский
скриншот  скриншот  скриншот  

скриншот  скриншот  скриншот  

Общее
Уникальный идентификатор : 218499814236122726243387600051654280106 (0xA4618893FB9EC0E0A77B8C38D972C3AA)
Полное имя : D:ЗагрузкиPritjazenie.2017.x264.BDRip.(1080p).OlLandGroup.mkv
Формат : Matroska
Версия формата : Version 2
Размер файла : 13,2 Гбайт
Продолжительность : 2 ч. 12 м.
Общий поток : 14,3 Мбит/сек
Название фильма : Притяжение.2017.Rip by: ollan
Дата кодирования : UTC 2017-04-19 00:13:46
Программа кодирования : mkvmerge v5.6.0 ('Kenya Kane') built on May 27 2012 16:44:04
Библиотека кодирования : libebml v1.2.3 + libmatroska v1.3.0
Attachements : Cover - Pritjazenie.png

Видео
Идентификатор : 1
Формат : AVC
Формат/Информация : Advanced Video Codec
Профиль формата : High@L4.1
Параметр CABAC формата : Да
Параметр ReFrames формата : 5 кадров
Идентификатор кодека : V_MPEG4/ISO/AVC
Продолжительность : 2 ч. 12 м.
Битрейт : 12,1 Мбит/сек
Ширина : 1920 пикселей
Высота : 808 пикселей
Соотношение сторон : 2,40:1
Режим частоты кадров : Постоянный
Частота кадров : 24,000 кадра/сек
Цветовое пространство : YUV
Субдискретизация насыщенности : 4:2:0
Битовая глубина : 8 бит
Тип развёртки : Прогрессивная
Бит/(Пиксели*Кадры) : 0.325
Размер потока : 10,9 Гбайт (83%)
Библиотека кодирования : x264 core 146 r2538 121396c
Настройки программы : cabac=1 / ref=5 / deblock=1:-3:-3 / analyse=0x3:0x113 / me=umh / subme=11 / psy=1 / psy_rd=1.02:0.06 / mixed_ref=1 / me_range=48 / chroma_me=1 / trellis=2 / 8x8dct=1 / cqm=0 / deadzone=21,11 / fast_pskip=0 / chroma_qp_offset=-3 / threads=12 / lookahead_threads=3 / sliced_threads=0 / nr=0 / decimate=0 / interlaced=0 / bluray_compat=0 / constrained_intra=0 / bframes=10 / b_pyramid=2 / b_adapt=2 / b_bias=0 / direct=3 / weightb=1 / open_gop=0 / weightp=2 / keyint=240 / keyint_min=23 / scenecut=40 / intra_refresh=0 / rc_lookahead=40 / rc=2pass / mbtree=0 / bitrate=12107 / ratetol=1.0 / qcomp=0.60 / qpmin=0 / qpmax=69 / qpstep=4 / cplxblur=20.0 / qblur=0.5 / vbv_maxrate=50000 / vbv_bufsize=62500 / nal_hrd=none / filler=0 / ip_ratio=1.40 / pb_ratio=1.30 / aq=1:1.00
Язык : Russian
Default : Да
Forced : Нет

Аудио #1
Идентификатор : 2
Формат : AC-3
Формат/Информация : Audio Coding 3
Расширение режима : CM (complete main)
Параметр Endianness формата : Big
Идентификатор кодека : A_AC3
Продолжительность : 2 ч. 12 м.
Вид битрейта : Постоянный
Битрейт : 640 Кбит/сек
Каналы : 6 каналов
Расположение каналов : Front: L C R, Side: L R, LFE
Частота : 48,0 КГц
Частота кадров : 31,250 кадров/сек (1536 spf)
Метод сжатия : С потерями
Размер потока : 607 Мбайт (4%)
Заголовок : Лицензия
Язык : Russian
Default : Да
Forced : Нет

Аудио #2
Идентификатор : 3
Формат : DTS
Формат/Информация : Digital Theater Systems
Режим : 16
Параметр Endianness формата : Big
Идентификатор кодека : A_DTS
Продолжительность : 2 ч. 12 м.
Вид битрейта : Постоянный
Битрейт : 1510 Кбит/сек
Каналы : 6 каналов
Расположение каналов : Front: L C R, Side: L R, LFE
Частота : 48,0 КГц
Частота кадров : 93,750 кадра/сек (512 spf)
Битовая глубина : 24 бит
Метод сжатия : С потерями
Размер потока : 1,40 Гбайт (11%)
Заголовок : Лицензия
Язык : Russian
Default : Нет
Forced : Нет

Меню
00:00:00.000 : ru:Chapter 01
00:10:03.708 : ru:Chapter 02
00:23:20.208 : ru:Chapter 03
00:29:36.458 : ru:Chapter 04
00:42:24.416 : ru:Chapter 05
00:50:32.000 : ru:Chapter 06
01:02:20.500 : ru:Chapter 07
01:14:38.791 : ru:Chapter 08
01:23:25.291 : ru:Chapter 09
01:37:06.583 : ru:Chapter 10
01:46:10.125 : ru:Chapter 11
01:55:38.500 : ru:Chapter 12
02:12:31.791 : ru:Chapter 13

piratbit.pw



Скачать Притяжение через торрент http://s019.radikal.ru/i605/1704/12/5de4ed3ef628.jpg Скачать фильм Притяжение через торрент бесплантно в хорошем качестве Описание: «…Как только что стало известно, сбитый над Москвой неопознанный объект имеет, возможно, внеземное происхождение. Большая часть ... 7 10 3
Торрент: Зарегистрирован [2019-10-06 05:30] · скачан: 95 раз
Статус: √ проверено
Размер: 13.2 GB
Как cкачать? Как скачать Притяжение через торрент | qTorrent

% Раздел Тема Автор DL S | L
Наши новые фильмы 2017 [ 795 MB ] Притяжение [2017 BDRip] [ BD RUS] bober100 Скачать
1 | 0
Зарубежные сериалы [ 4.93 GB ] Притяжению вопреки / Defying Gravity / Сезон: 1 / Серии 13 из 13 [2009 HDTVRip] MVO закадровый wekotila Скачать
1 | 1
Зарубежные сериалы [ 59.29 GB ] Притяжению вопреки / Defying Gravity / Сезон: 1 / Серии: 1-13 из 13 [2009 WEB-DL 1080p] MVO [LostFilm] bober100 Скачать
1 | 0
Наши фильмы (HD, WEB-DL 720p, 1080p) [ 5.73 GB ] Притяжение [2017 BDRip 720p] potroks Скачать
2 | 0
Рок, Панк, Альтернатива (mp3) [ 79 MB ] Four G - Притяжение 2017 / MP3 / 320 kbps / Рок oleg8 Скачать
1 | 0
3D Фильмы [ 17.88 GB ] Притяжение в 3Д / Attraction 3D [2017 BDrip 1080p] OverUnder / Вертикальная стереопара serega768 Скачать
1 | 0

28-11-2019 20:33  

Отключить всю рекламу на сайте

06-10-2019 06:29 Притяжение Скачать торрент  

Скоро "вторжение" гашиш забивают пока а вы не работник канала россия?piratbit.pw



    Дорогой пользователь! Огромная просьба, поблагодарите релизера, оцените раздачу и оставьте свои комментарий, если Вы скачали Притяжение через торрент бесплатно! Внесите свою лепту в развитие PiratBit!
    Комментировать посты могут только пользователи прошедшие не сложную регистрацию
    Показать сообщения:    

    Притяжение через торрент
    Скачать бесплатно Притяжение
    Притяжение скачать торрент
    Притяжение смотреть онлайн
    Cкачать фильм Притяжение бесплатно
    Притяжение скачать торрент в хорошем качестве
    Притяжение смотреть онлайн бесплатно в хорошем качестве


    Вы не можете начинать темы
    Вы не можете отвечать на сообщения
    Вы не можете редактировать свои сообщения
    Вы не можете удалять свои сообщения
    Вы не можете голосовать в опросах
    Вы не можете прикреплять файлы к сообщениям
    Вы можете скачивать файлы