Ссылка на приватное зеркало всего за 1$. Внимание количество ограничено!!!

iTunes

iTunes

iTunes

1

iTunes

iTunes

iTunes

iTunes

iTunes

30
pack

$ от Little Big

ВАЖНО

!!Акция!!

Alien_RageХит недели

RePack

Resident Evil 21

ИГРА 18+

pack

RePack

jed

!!Акция!!

Alien_Rage

RePack

fifa19

RePack

Assassins Creed: Odyssey

RePack

NEED FOR SPEED™ PAYBACK

4 сезон

9 сезон

Бесстыжие 9 сезон

Все сериалы

все сериалы на PB.wtf

RePack

FAR CRY 5
  

Али, рули! / Stuber (Майкл Даус) [2019, боевик, триллер, комедия, криминал, WEB-DL 720p] DUB [iTunes] piratbit.pw

Али, рули! через торрент piratbit.pw

Раздают: 5 [ 6 KB/s ]
Размер: 2.61 GB | Добавлен: 9 мес. назад | Торрент скачан:1648 раз
Скачать  

04-10-2019 15:46 Али, рули! Скачать торрент  

Али, рули! / Stuber
Год выпуска: 2019
Страна: США
Жанр: боевик, триллер, комедия, криминал
Продолжительность: 01:33:23
Перевод: Дублированный | iTuens
Субтитры: Русские (Forced, Full), английские (Full, SDH)

Режиссер: Майкл Даус

rating

В ролях: Кумэйл Нанджиани, Дэйв Батиста, Мира Сорвино, Натали Моралес, Ико Уайс, Бетти Гилпин, Карен Гиллан, Джимми Татро, Стив Хоуи, Рене Моран

Описание: Скромный водитель Uber по имени Стю подбирает пассажира, который оказывается полицейским, идущим по следу жестокого убийцы. Таксист даже представить не мог, что теперь его ждет мучительное испытание, в ходе которого он будет отчаянно пытаться сохранить трезвый ум, жизнь и пятизвездочный рейтинг в приложении.

Качество: WEB-DL 720p
Формат: MKV

Видео: MPEG-4 AVC, 2970 Kбит/с, 1248x520, 23.976 кадр/с
Аудио#1: Русский (АС3, 6 ch, 384 Кбит/с, 48.0 KHz) Профессиональный (дублированный) iTunes
Аудио#2: Английский (E-АС3, 6 ch, 640 Кбит/с, 48.0 KHz)
скриншот  скриншот  скриншот  скриншот  скриншот  

Источник: Stuber.2019.720p.AMZN.WEB-DL.DDP5.1.H.264-NTG
General
Unique ID : 174690344042932405082262612070226846190 (0x836C22EEF613F9D48673B7945CC1E1EE)
Complete name : Stuber.2019.AMZN.WEB-DL.720p.mkv
Format : Matroska
Format version : Version 4
File size : 2.61 GiB
Duration : 1 h 33 min
Overall bit rate : 3 996 kb/s
Encoded date : UTC 2019-10-04 15:11:27
Writing application : mkvmerge v7.1.0 ('Good Love') 64bit built on Jul 27 2014 13:06:55
Writing library : libebml v1.3.0 + libmatroska v1.4.1

Video
ID : 1
Format : AVC
Format/Info : Advanced Video Codec
Format profile : High@L3.1
Format settings : CABAC / 4 Ref Frames
Format settings, CABAC : Yes
Format settings, Reference fra : 4 frames
Codec ID : V_MPEG4/ISO/AVC
Duration : 1 h 33 min
Bit rate mode : Constant
Bit rate : 2 970 kb/s
Nominal bit rate : 6 000 kb/s
Width : 1 248 pixels
Height : 520 pixels
Display aspect ratio : 2.40:1
Frame rate mode : Constant
Frame rate : 23.976 (24000/1001) FPS
Color space : YUV
Chroma subsampling : 4:2:0
Bit depth : 8 bits
Scan type : Progressive
Bits/(Pixel*Frame) : 0.191
Stream size : 1.94 GiB (74%)
Language : English
Default : Yes
Forced : No
Color range : Limited
Color primaries : BT.709
Transfer characteristics : BT.709
Matrix coefficients : BT.709

Audio #1
ID : 2
Format : AC-3
Format/Info : Audio Coding 3
Commercial name : Dolby Digital
Codec ID : A_AC3
Duration : 1 h 33 min
Bit rate mode : Constant
Bit rate : 384 kb/s
Channel(s) : 6 channels
Channel layout : L R C LFE Ls Rs
Sampling rate : 48.0 kHz
Frame rate : 31.250 FPS (1536 SPF)
Bit depth : 16 bits
Compression mode : Lossy
Stream size : 256 MiB (10%)
Title : DUB | iTunes
Language : Russian
Service kind : Complete Main
Default : Yes
Forced : No

Audio #2
ID : 3
Format : E-AC-3
Format/Info : Enhanced AC-3
Commercial name : Dolby Digital Plus
Codec ID : A_EAC3
Duration : 1 h 33 min
Bit rate mode : Constant
Bit rate : 640 kb/s
Channel(s) : 6 channels
Channel layout : L R C LFE Ls Rs
Sampling rate : 48.0 kHz
Frame rate : 31.250 FPS (1536 SPF)
Compression mode : Lossy
Stream size : 427 MiB (16%)
Language : English
Service kind : Complete Main
Default : No
Forced : No

Text #1
ID : 4
Format : UTF-8
Codec ID : S_TEXT/UTF8
Codec ID/Info : UTF-8 Plain Text
Duration : 1 h 27 min
Bit rate : 1 b/s
Count of elements : 24
Stream size : 807 Bytes (0%)
Title : forced
Language : Russian
Default : Yes
Forced : No

Text #2
ID : 5
Format : UTF-8
Codec ID : S_TEXT/UTF8
Codec ID/Info : UTF-8 Plain Text
Duration : 1 h 32 min
Bit rate : 113 b/s
Count of elements : 1819
Stream size : 77.3 KiB (0%)
Language : Russian
Default : No
Forced : No

Text #3
ID : 6
Format : UTF-8
Codec ID : S_TEXT/UTF8
Codec ID/Info : UTF-8 Plain Text
Duration : 1 h 32 min
Bit rate : 79 b/s
Count of elements : 1969
Stream size : 53.8 KiB (0%)
Language : English
Default : No
Forced : No

Text #4
ID : 7
Format : UTF-8
Codec ID : S_TEXT/UTF8
Codec ID/Info : UTF-8 Plain Text
Duration : 1 h 32 min
Bit rate : 85 b/s
Count of elements : 2154
Stream size : 58.2 KiB (0%)
Title : SDH
Language : English
Default : No
Forced : No

piratbit.pw



Скачать Али, рули! через торрент https://c.radikal.ru/c14/1907/88/39ee80466a28.jpg Скачать фильм Али, рули! через торрент бесплантно в хорошем качестве Описание: Скромный водитель Uber по имени Стю подбирает пассажира, который оказывается полицейским, идущим по следу жестокого убийцы. ... 10 10 31
Info! Золотая раздача, скачанное не засчитывается.
Торрент: Зарегистрирован [2019-10-04 15:46] · скачан: 1 648 раз
Статус: √ проверено
Размер: 2.61 GB
Как cкачать? Как скачать Али, рули! через торрент | qTorrent

% Раздел Тема Автор DL S | L
Фильмы 2019-2020 [DVDrip, WEB-DLRip, HDrip] (DUB, MVO) [ 1.42 GB ] Али рули! / Stuber [2019 BDRip] - Twi7ter Скачать
14 | 5
Фильмы [HD 720p, 1080p] (Хороший звук DUB, MVO) [ 7.68 GB ] Али рули! / Stuber [2019 UHD BDRip 1080p] DUB bober100 Скачать
2 | 0
Фильмы 2019-2020 [DVDrip, WEB-DLRip, HDrip] (DUB, MVO) [ 1.73 GB ] Али рули! / Stuber [2019 BDRip-AVC] bober100 Скачать
2 | 0
Фильмы [HD 720p, 1080p] (Хороший звук DUB, MVO) [ 3.95 GB ] Али рули! / Stuber [2019 BDRip 720p] DUB bober100 Скачать
3 | 0
Фильмы 2019-2020 [DVDrip, WEB-DLRip, HDrip] (DUB, MVO) [ 1.42 GB ] Али рули! / Stuber [2019 BDRip] DUB [iTuens] bober100 Скачать
2 | 0
Фильмы (Blu-ray, BD-Remux, HDDVD) [ 23.03 GB ] Али рули! / Stuber [2019 BD Remux 1080p] DUB bober100 Скачать
1 | 0
Ultra HD (UHD: 2K, 4K, 8K) — видео сверхвысокой чёткости [ 22.7 GB ] Али рули! / Stuber [2019 UHD BDRip 2160p] [SDR] DUB bober100 Скачать
2 | 0

28-11-2019 20:33  

Отключить всю рекламу на сайте

04-10-2019 16:06 Али, рули! Скачать торрент  

Спасибо !
Ждал, говорят прикольная комедияpiratbit.pw



06-10-2019 11:07 Али, рули! Скачать торрент  

ахахах,реклама убера piratbit.pw



06-10-2019 15:29 Али, рули! Скачать торрент  

Под пиво самое то, волосатый Дракс и Радж Кутрапари делают красиво...piratbit.pw



26-10-2019 16:40 Али, рули! Скачать торрент  

6o6yc писал(а):

Спасибо !
Ждал, говорят прикольная комедия

ДА!piratbit.pw



28-10-2019 08:35 Али, рули! Скачать торрент  

Да фильмец. Чисто от нечего делать можно посомтреть.piratbit.pw



    Дорогой пользователь! Огромная просьба, поблагодарите релизера, оцените раздачу и оставьте свои комментарий, если Вы скачали Али, рули! через торрент бесплатно! Внесите свою лепту в развитие PiratBit!
    Комментировать посты могут только пользователи прошедшие не сложную регистрацию
    Показать сообщения:    

    Али, рули! через торрент
    Скачать бесплатно Али, рули!
    Али, рули! скачать торрент
    Али, рули! смотреть онлайн
    Cкачать фильм Али, рули! бесплатно
    Али, рули! скачать торрент в хорошем качестве
    Али, рули! смотреть онлайн бесплатно в хорошем качестве


    Вы не можете начинать темы
    Вы не можете отвечать на сообщения
    Вы не можете редактировать свои сообщения
    Вы не можете удалять свои сообщения
    Вы не можете голосовать в опросах
    Вы не можете прикреплять файлы к сообщениям
    Вы можете скачивать файлы