Ссылка на приватное зеркало нашего сайта всего за 1$. Внимание количество ограничено!!!

2 сезон

iTunes

iTunes

1

iTunes

iTunes

iTunes

WEBRip

iTunes

30
pack

Новость дня

ВАЖНО

!!Акция!!

Alien_RageХит недели

RePack

Horizon Zero Dawn

ИГРА 18+

pack

RePack

jed

!!Акция!!

Alien_Rage

RePack

fifa19

RePack

Assassins Creed: Odyssey

RePack

NEED FOR SPEED™ PAYBACK

4 сезон

9 сезон

Бесстыжие 9 сезон

Все сериалы

все сериалы на PB.wtf

RePack

FAR CRY 5
  

Дылда (Кантемир Балагов) [2019, драма, WEB-DL 1080p] [iTunes] piratbit.pw

Дылда через торрент piratbit.pw

Раздают: 1 [ 0 KB/s ]
Размер: 5.36 GB | Добавлен: 11 мес. назад | Торрент скачан:242 раза
Скачать  

04-10-2019 12:25 Дылда Скачать торрент  

Дылда
Год выпуска: 2019
Страна: Россия
Жанр: драма
Продолжительность: 02:17:12
Перевод: Не требуется | iTunes
Субтитры: отсутствуют

Режиссер: Кантемир Балагов

rating

В ролях: Виктория Мирошниченко, Василиса Перелыгина, Андрей Быков, Игорь Широков, Константин Балакирев, Ксения Кутепова, Ольга Драгунова, Тимофей Глазков

Описание: История двух молодых женщин-фронтовичек, которые возвращаются в послевоенный Ленинград и пытаются обрести новую мирную жизнь, когда и вокруг, и главное, внутри них - руины.

Качество: WEB-DL 1080p
Формат: MKV

Видео: MPEG-4 AVC, 5200 Кбит/с, 1908x1028
Аудио: 48 kHz, AC3 Dolby Digital, 3/2 (L,C,R,l,r) + LFE ch, ~384 kbps
скриншот  скриншот  скриншот  скриншот  скриншот  

Общее
Уникальный идентификатор : 202676340877524876042162908993877231637 (0x987A0B1BB4554501AB5E0A9E7CACC815)
Полное имя : D:\Dylda.2019.O.WEB-DL.1080p.mkv
Формат : Matroska
Версия формата : Version 4 / Version 2
Размер файла : 5,36 Гбайт
Продолжительность : 2 ч. 17 м.
Общий поток : 5593 Кбит/сек
Название фильма : DYLDA_2019_WEB-DL_1080p-BLUEBIRD
Дата кодирования : UTC 2019-10-02 18:46:31
Программа кодирования : mkvmerge v6.9.1 ('Blue Panther') 32bit built on Apr 18 2014 18:15:44
Библиотека кодирования : libebml v1.3.0 + libmatroska v1.4.1
Обложка : Yes
Attachments : cover2.png

Видео
Идентификатор : 1
Формат : AVC
Формат/Информация : Advanced Video Codec
Профиль формата : High@L4
Параметр CABAC формата : Да
Параметр RefFrames формата : 4 кадра
Идентификатор кодека : V_MPEG4/ISO/AVC
Продолжительность : 2 ч. 17 м.
Битрейт : 5200 Кбит/сек
Ширина : 1908 пикселей
Высота : 1028 пикселей
Соотношение сторон : 1,85:1
Режим частоты кадров : Постоянный
Частота кадров : 23,976 (24000/1001) кадра/сек
Цветовое пространство : YUV
Субдискретизация насыщенности : 4:2:0
Битовая глубина : 8 бит
Тип развёртки : Прогрессивная
Бит/(Пиксели*Кадры) : 0.108
Размер потока : 4,89 Гбайт (91%)
Заголовок : DYLDA_2019_WEB-DL_1080p-BLUEBIRD
Язык : English
Default : Да
Forced : Нет
Цветовой диапазон : Limited
Основные цвета : BT.709
Характеристики трансфера : BT.709
Коэффициенты матрицы : BT.709

Аудио
Идентификатор : 2
Формат : AC-3
Формат/Информация : Audio Coding 3
Расширение режима : CM (complete main)
Параметр Endianness формата : Big
Идентификатор кодека : A_AC3
Продолжительность : 2 ч. 17 м.
Вид битрейта : Постоянный
Битрейт : 384 Кбит/сек
Каналы : 6 каналов
Расположение каналов : Front: L C R, Side: L R, LFE
Частота : 48,0 КГц
Частота кадров : 31,250 кадров/сек (1536 spf)
Метод сжатия : С потерями
Размер потока : 377 Мбайт (7%)
Заголовок : [ORIGINAL] DD 5.1 @ 384 kbps (iTunes)
Язык : Russian
Default : Да
Forced : Нет

Меню
00:00:00.000 : en:1
00:01:00.000 : en:2
00:10:49.000 : en:3
00:18:45.000 : en:4
00:27:56.000 : en:5
00:39:12.000 : en:6
00:50:03.000 : en:7
00:59:44.000 : en:8
01:10:22.000 : en:9
01:21:56.000 : en:10
01:29:53.000 : en:11
01:40:53.000 : en:12
01:51:39.000 : en:13
02:02:06.000 : en:14
02:12:45.000 : en:15

piratbit.pw



Скачать Дылда через торрент https://d.radikal.ru/d16/1910/91/5c35dc68c692.png Скачать фильм Дылда через торрент бесплантно в хорошем качестве Описание: История двух молодых женщин-фронтовичек, которые возвращаются в послевоенный Ленинград и пытаются обрести новую мирную жизнь, ... 6.3 10 10
Info! Золотая раздача, скачанное не засчитывается.
Торрент: Зарегистрирован [2019-10-04 12:25] · скачан: 242 раз
Статус: √ проверено
Размер: 5.36 GB
Как cкачать? Как скачать Дылда через торрент | qTorrent

% Раздел Тема Автор DL S | L
Наши новые фильмы 2018-2019 [ 826 MB ] Дылда [2019 военный HDRip Русский "BD USA"] coc900 Скачать
4 | 1
Наши новые фильмы 2018-2019 [ 2.18 GB ] Дылда [2019 военный BDRip] [US Transfer / ] bober100 Скачать
3 | 0
Наши новые фильмы 2018-2019 [ 1.46 GB ] Дылда [2019 военный BDRip] [US Transfer / ] bober100 Скачать
1 | 0
Наши фильмы (Blu-ray, BD-Remux, HDDVD) [ 44.07 GB ] Дылда [2019 военный Blu-ray 1080p] [US Transfer / ] bober100 Скачать
1 | 0
Наши фильмы (HD, WEB-DL 720p, 1080p) [ 21.79 GB ] Дылда [2019 военный BDRip 1080p] [US Transfer / ] bober100 Скачать
1 | 0
Наши фильмы (HD, WEB-DL 720p, 1080p) [ 11.67 GB ] Дылда [2019 военный BDRip 720p] [US Transfer / ] bober100 Скачать
1 | 0
Наши сериалы [ 6.32 GB ] Дылды / Сезон: 1 / Серии: 1-21 из 21 [2019 WEB-DLRip-AVC] bober100 Скачать
2 | 0

28-11-2019 20:33  

Отключить всю рекламу на сайте

    Дорогой пользователь! Огромная просьба, поблагодарите релизера, оцените раздачу и оставьте свои комментарий, если Вы скачали Дылда через торрент бесплатно! Внесите свою лепту в развитие PiratBit!
    Комментировать посты могут только пользователи прошедшие не сложную регистрацию
    Показать сообщения:    

    Дылда через торрент
    Скачать бесплатно Дылда
    Дылда скачать торрент
    Дылда смотреть онлайн
    Cкачать фильм Дылда бесплатно
    Дылда скачать торрент в хорошем качестве
    Дылда смотреть онлайн бесплатно в хорошем качестве


    Вы не можете начинать темы
    Вы не можете отвечать на сообщения
    Вы не можете редактировать свои сообщения
    Вы не можете удалять свои сообщения
    Вы не можете голосовать в опросах
    Вы не можете прикреплять файлы к сообщениям
    Вы можете скачивать файлы