MEGA SALE -75% Borderlands 3 Super Deluxe всего за 550р. 180 руб. (супер цена). Внимание количество ограничено!!!

iTunes

1+1

iTunes

мы

iTunes

1

iTunes

Чернобыль

iTunes

Ральф против интернета

Лицензия

ПШазам

Лицензия

Игра престолов

Лицензия

30
pack

ВАЖНО

!!Акция!!

Alien_RageХит недели

RePack

Resident Evil 21

ИГРА 18+

pack

RePack

Metro:Exodus

!!Акция!!

Alien_Rage

RePack

fifa19

RePack

Assassins Creed: Odyssey

RePack

NEED FOR SPEED™ PAYBACK

3 сезон

9 сезон

Бесстыжие 9 сезон

Все сериалы

все сериалы на PB.wtf

RePack

FAR CRY 5
Ребята, катастрофически не хватает 1900р. для оплаты серверов за АВГУСТ (всвязи с блокировками трафик упал в 3 раза), 1-2р., выручайте.
  

Форс-мажор / Сезон: 1 / Серии: 1-7 из 10 (Александр Жигалкин) [2019, Комедия, криминал, WEB-DL 1080p] piratbit.pw

Форс-мажор через торрент piratbit.pw

Размер: 15.17 GB | Добавлен: 4 д. назад | Торрент скачан:6 раз
Скачать  

02-10-2019 17:09 Форс-мажор Скачать торрент  

Форс-мажор
Год выпуска: 2019
Страна: Россия
Жанр: Комедия, криминал
Продолжительность: ~ 00:48:00
Субтитры: отсутствуют

Режиссер: Александр Жигалкин



В ролях: Павел Прилучный, Галина Петрова, Диана Пожарская, Илья Глинников, Александр Ильин, Сергей Лавыгин, Федор Добронравов, Владимир Сычев, Александр Ильин мл., Дмитрий Мальцев

Описание: Главный герой сериала — обычный медбрат Витя, который работает в клинике пластической хирургии. Скромный, безотказный молодой человек привык подчиняться всем, включая мать и друзей. Однажды в клинику, где он работает, обращается местный мафиози Терапевт. Глава криминального клана хочет сменить внешность, чтобы скрыться от полиции. Но во время операции авторитет умирает. Витя уверен, что в его смерти виноват он, и теперь ему грозит месть всего бандитского мира. На помощь приходит верный друг Артём. Он предлагает Вите неожиданный выход — стать Терапевтом — и втягивает молодого человека в авантюру, которая полностью перевернет его жизнь.

Качество: WEB-DL 1080p
Формат: MKV

Видео: 1920х1080 (16:9), 25 fps, AVC MPEG-4 (x264), High@L4.1 ~ 5900 kbps avg, 0.115 bit/pixel
Аудио: 48 kHz, АС3, 2/0 (L,R), ~192 kbps avg
скриншот  скриншот  скриншот  скриншот  

General
Unique ID: 221048527521705088438645700505319085407 (0xA64C65D84BF4CFC18FD8CEDB77ED955F)
Complete name: D:\Fors.mazhor.2017.WEB-DL.(1080p).ExKinoRay\Fors.mazhor.E02.2017.WEB-DL.(1080p).ExKinoRay.mkv
Format: Matroska
Format version: Version 4 / Version 2
File size: 2.12 GiB
Duration: 48 min 53 s
Overall bit rate: 6 199 kb/s
Encoded date: UTC 2019-09-29 22:21:51
Writing application: mkvmerge v6.9.1 ('Blue Panther') 64bit built on Apr 18 2014 18:23:38
Writing library: libebml v1.3.0 + libmatroska v1.4.1

Video
ID: 1
Format: AVC
Format/Info: Advanced Video Codec
Format profile: High@L4.1
Format settings: CABAC / 4 Ref Frames
Format settings, CABAC: Yes
Format settings, ReFrames: 4 frames
Codec ID: V_MPEG4/ISO/AVC
Duration: 48 min 53 s
Bit rate: 5 883 kb/s
Width: 1 920 pixels
Height: 1 080 pixels
Display aspect ratio: 16:9
Frame rate mode: Constant
Frame rate: 25.000 FPS
Color space: YUV
Chroma subsampling: 4:2:0
Bit depth: 8 bits
Scan type: Progressive
Bits/(Pixel*Frame): 0.113
Stream size: 2.01 GiB (95%)
Default: No
Forced: No
Color range: Limited
Color primaries: BT.709
Transfer characteristics: BT.709
Matrix coefficients: BT.709

Audio
ID: 2
Format: AC-3
Format/Info: Audio Coding 3
Codec ID: A_AC3
Duration: 48 min 53 s
Bit rate mode: Constant
Bit rate: 192 kb/s
Channel(s): 2 channels
Channel positions: Front: L R
Sampling rate: 48.0 kHz
Frame rate: 31.250 FPS (1536 SPF)
Bit depth: 16 bits
Compression mode: Lossy
Stream size: 67.1 MiB (3%)
Language: Russian
Service kind: Complete Main
Default: Yes
Forced: No

Когда раздача ведётся путём добавления новых серий, при каждом добавлении создётся новый торрент. Чтобы начать докачку новой серии, пользователям необходимо сделать следующее:
(1) остановить скачивание,
(2) удалить старый торрент у себя из клиента (старые серии удалять не надо),
(3) скачать новый торрент и запустить его у себя в клиенте вместо старого, при этом указать клиенту путь в старую папку, куда и должно происходить скачивание новых серий.
Ваш клиент при этом должен произвести хеширование (проверку) старой папки (если не производит сам - помогите ему сделать это), и будет докачивать только те серии, которых у вас ещё нет. Старые серии при этом не удаляются, а продолжают раздаваться!
Eсли вы уже удалили старые серии, то предотвратить повторную закачку старых серий можно, отжав галочку в соответсвующих местах при запуске нового торрента. По возможности, желательно не удалять старые серии как можно дольше, чтобы релизёр не столько продолжал раздавать старые серии, а смог сконцентрироваться на новых.
piratbit.pw



Скачать Форс-мажор через торрент http://b.radikal.ru/b18/1910/c8/231eea4a7132.jpg Скачать фильм Форс-мажор через торрент бесплантно в хорошем качестве Описание: Главный герой сериала — обычный медбрат Витя, который работает в клинике пластической хирургии. Скромный, безотказный молодой ... 10 10 3
Торрент: Зарегистрирован [2019-10-10 03:06] · скачан: 6 раз
Статус: √ проверено
Размер: 15.17 GB
Как cкачать? Как скачать Форс-мажор через торрент | qTorrent

% Раздел Тема Автор DL S | L
Наши сериалы [ 9.05 GB ] Форс-мажор / Сезон: 1 / Серии: 1-7 из 10 [2019 WEB-DL 720p] bober100 Скачать
2 | 0
Зарубежные сериалы [ 31.07 GB ] Форс-Мажоры / Костюмы в законе / Suits / Сезон: 7 / Серии: 1-16 из 16 [2017 юриспруденция WEB-DL 1080p] MVO [Baibako] bober100 Скачать
1 | 0
Зарубежные сериалы [ 29.47 GB ] Форс-Мажоры / Костюмы в законе / Suits / Сезон: 7 / Серии: 1-16 из 16 [2017 юриспруденция WEB-DL 1080p] MVO [NewStudio] bober100 Скачать
1 | 0


>> Регистрируемся здесь <<






Отзывы и комментарии о схеме читаем и пишем здесь: ---> Отзывы и комментарии о схеме

Новые благодарочки в телеграм довольных пользователей:
скриншот   скриншот   скриншот   скриншот   скриншот
    Дорогой пользователь! Огромная просьба, поблагодарите релизера, оцените раздачу и оставьте свои комментарий, если Вы скачали Форс-мажор через торрент бесплатно! Внесите свою лепту в развитие PiratBit!
    Комментировать посты могут только пользователи прошедшие не сложную регистрацию
    Показать сообщения:    

    Форс-мажор через торрент
    Скачать бесплатно Форс-мажор
    Форс-мажор скачать торрент
    Форс-мажор смотреть онлайн
    Cкачать фильм Форс-мажор бесплатно
    Форс-мажор скачать торрент в хорошем качестве
    Форс-мажор смотреть онлайн бесплатно в хорошем качестве


    Вы не можете начинать темы
    Вы не можете отвечать на сообщения
    Вы не можете редактировать свои сообщения
    Вы не можете удалять свои сообщения
    Вы не можете голосовать в опросах
    Вы не можете прикреплять файлы к сообщениям
    Вы можете скачивать файлы