новый адрес
Мега распродажа FORZA HORIZON 4 ULTIMATE+ВСЕ DLC+ОНЛАЙН всего за 499р. 349 руб. (супер цена). Внимание количество ограничено!!!

iTunes

1+1

iTunes

мы

iTunes

1

iTunes

Чернобыль

iTunes

Ральф против интернета

Лицензия

ПШазам

Лицензия

Оно 2

Лицензия

30
pack

ВАЖНО

!!Акция!!

Alien_RageХит недели

RePack

Resident Evil 21

ИГРА 18+

pack

RePack

jed

!!Акция!!

Alien_Rage

RePack

fifa19

RePack

Assassins Creed: Odyssey

RePack

NEED FOR SPEED™ PAYBACK

3 сезон

9 сезон

Бесстыжие 9 сезон

Все сериалы

все сериалы на PB.wtf

RePack

FAR CRY 5
Ребята, катастрофически не хватает 1900р. для оплаты серверов за Октябрь (всвязи с блокировками трафик упал в 3 раза), 1-2р., выручайте.
  

Калейдоскоп ужасов / Creepshow / Сезон: 1 / Серии: 1-6 из 6 (Дэвид Брукнер, Джон Харрисон, Роксанна Бенжамин) [2019, Ужасы, WEB-DLRip] [MVO] (NewStudio) piratbit.pw

Калейдоскоп ужасов через торрент piratbit.pw

Размер: 3.7 GB | Добавлен: 12 д. назад | Торрент скачан:5 раз
Скачать  

30-09-2019 12:54 Калейдоскоп ужасов Скачать торрент  

Калейдоскоп ужасов | Creepshow
Год выпуска: 2019
Страна: США
Жанр: Ужасы
Продолжительность: ~ 00:45:00
Перевод: Профессиональный (многоголосый закадровый) | NewStudio
Режиссёр: Дэвид Брукнер, Джон Харрисон, Роксанна Бенжамин
В ролях: Ханна Бэйрфут, Брюс Дэвисон, Логан Аллен, Дэвид Аркетт, Эдриенн Барбо, Тобин Белл, Биг Бой, Нельсон Бонилья, Трэйси Боннер, Мэдисон Бейли, Джесси Бойд
Описание: В этом сериале-антологии жуткие рассказы из книги комиксов мальчика становятся явью.

rating
Качество: WEB-DLRip
Формат: AVI
Видео: XviD, 720x400 (16:9), 23.976 кадров/сек, 1600 Кбит/сек
Аудио Rus: AC3, 48,0 kHz, 2 ch, 192 Кбит/сек | NewStudio
Аудио Eng: AC3, 48,0 kHz, 2 ch, 192 Кбит/сек
Субтитры: Русские (antoniolagrande), английские
Реклама: Отсутствует
Общее
Полное имя : E:\Creepshow (Season 1) WEB-DLRip\Creepshow.S01E01.WEB-DLRip.RGzsRutracker.[Wentworth_Miller].avi
Формат : AVI
Формат/Информация : Audio Video Interleave
Размер файла : 655 Мбайт
Продолжительность : 45 м. 51 с.
Общий поток : 1998 Кбит/сек
Программа кодирования : VirtualDubMod 1.5.10.3 | www.virtualdub-fr.org || (build 2550/release)
Библиотека кодирования : VirtualDubMod build 2550/release

Видео
Идентификатор : 0
Формат : MPEG-4 Visual
Профиль формата : Advanced Simple@L5
Настройки формата : BVOP1
Параметр BVOP формата : 1
Параметр QPel формата : Нет
Параметр GMC формата : Без точки перехода
Параметр матрицы формата : Default (MPEG)
Идентификатор кодека : XVID
Идентификатор кодека/Подсказка : XviD
Продолжительность : 45 м. 51 с.
Битрейт : 1600 Кбит/сек
Ширина : 720 пикселей
Высота : 400 пикселей
Соотношение сторон : 16:9
Частота кадров : 23,976 (24000/1001) кадра/сек
Цветовое пространство : YUV
Субдискретизация насыщенности : 4:2:0
Битовая глубина : 8 бит
Тип развёртки : Прогрессивная
Метод сжатия : С потерями
Бит/(Пиксели*Кадры) : 0.232
Размер потока : 525 Мбайт (80%)
Библиотека кодирования : XviD 67

Аудио #1
Идентификатор : 1
Формат : AC-3
Формат/Информация : Audio Coding 3
Коммерческое название : Dolby Digital
Идентификатор кодека : 2000
Продолжительность : 45 м. 51 с.
Вид битрейта : Постоянный
Битрейт : 192 Кбит/сек
Каналы : 2 канала
ChannelLayout : L R
Частота : 48,0 КГц
Частота кадров : 31,250 кадров/сек (1536 SPF)
Метод сжатия : С потерями
Размер потока : 63,0 Мбайт (10%)
Выравнивание : Разделение по промежуткам
Продолжительность промежутка : 42 мс. (1,00 видеокадр)
Время предзагрузки промежутка : 500 мс.
ServiceKind/String : Complete Main

Аудио #2
Идентификатор : 2
Формат : AC-3
Формат/Информация : Audio Coding 3
Коммерческое название : Dolby Digital
Идентификатор кодека : 2000
Продолжительность : 45 м. 51 с.
Вид битрейта : Постоянный
Битрейт : 192 Кбит/сек
Каналы : 2 канала
ChannelLayout : L R
Частота : 48,0 КГц
Частота кадров : 31,250 кадров/сек (1536 SPF)
Метод сжатия : С потерями
Размер потока : 63,0 Мбайт (10%)
Выравнивание : Разделение по промежуткам
Продолжительность промежутка : 42 мс. (1,00 видеокадр)
Время предзагрузки промежутка : 500 мс.
ServiceKind/String : Complete Main

скриншот  скриншот  скриншот  

Внимание! Раздача ведётся путём добавления новых серий; при каждом добавлении создаётся новый торрент. Чтобы начать докачку новой серии, пользователям необходимо сделать следующее:
(1) остановить скачивание,
(2) удалить старый торрент у себя из клиента (старые серии удалять не надо),
(3) скачать новый торрент и запустить его у себя в клиенте вместо старого, при этом указать клиенту путь в старую папку куда и должно происходить скачивание новых серий.

Ваш клиент при этом должен произвести хеширование (проверку) старой папки (если не производит сам - помогите ему сделать это), и будет докачивать только те серии которых у вас ещё нет. Старые серии при этом не удаляются, а продолжают раздаваться!

Eсли вы уже удалили старые серии, то предотвратить повторную закачку старых серий можно, отжав галочку в соответствующих местах при запуске нового торрента. По возможности, желательно не удалять старые серии как можно дольше чтобы релизёр не столько продолжал раздавать старые серии, а смог сконцентрироваться на новых.

piratbit.pw



Скачать Калейдоскоп ужасов через торрент https://c.radikal.ru/c40/1909/ac/be8e643ea5a0.jpg Скачать фильм Калейдоскоп ужасов через торрент бесплантно в хорошем качестве Описание: В этом сериале-антологии жуткие рассказы из книги комиксов мальчика становятся явью. ... 10 10 4
Торрент: Зарегистрирован [2019-11-08 14:32] · скачан: 5 раз
Статус: √ проверено
Размер: 3.7 GB
Как cкачать? Как скачать Калейдоскоп ужасов через торрент | qTorrent

% Раздел Тема Автор DL S | L
Зарубежные сериалы [ 4.36 GB ] Калейдоскоп ужасов / Creepshow / Сезон: 1 / Серии: 1-6 из 6 [2019 WEB-DLRip-AVC] MVO [NewStudio] bober100 Скачать
2 | 0
Зарубежные сериалы [ 4.07 GB ] Калейдоскоп ужасов / Creepshow / Сезон: 1 / Серии: 1-6 из 6 [2019 WEB-DLRip] MVO [TVShows] bober100 Скачать
4 | 0
Зарубежные сериалы [ 16.9 GB ] Калейдоскоп ужасов / Creepshow / Сезон: 1 / Серии: 1-6 из 6 [2019 WEBRip 1080p] MVO [NewStudio] bober100 Скачать
1 | 0
Зарубежные сериалы [ 16.9 GB ] Калейдоскоп ужасов / Creepshow / Сезон: 1 / Серии: 1-6 из 6 [2019 WEB-DL 1080p] MVO [TVShows] bober100 Скачать
1 | 0
Зарубежные сериалы [ 7.63 GB ] Калейдоскоп ужасов / Creepshow / Сезон: 1 / Серии: 1-6 из 6 [2019 WEB-DL 720p] MVO [TVShows] bober100 Скачать
2 | 1
Зарубежные сериалы [ 8.16 GB ] Калейдоскоп ужасов / Creepshow / Сезон: 1 / Серия: 1-6 из 6 [2019 WEB-DL 720p] 3xMVO [NewStudio Jaskier HDRezka Studio] bober100 Скачать
2 | 0
Зарубежные сериалы [ 16.84 GB ] Калейдоскоп ужасов / Creepshow / Сезон: 1 / Серии: 1-6 из 6 [2019 WEB-DL 1080p] MVO [Jaskier] bober100 Скачать
1 | 1


>> Регистрируемся здесь <<






Отзывы и комментарии о схеме читаем и пишем здесь: ---> Отзывы и комментарии о схеме

Новые благодарочки в телеграм довольных пользователей:
скриншот   скриншот   скриншот   скриншот   скриншот
    Дорогой пользователь! Огромная просьба, поблагодарите релизера, оцените раздачу и оставьте свои комментарий, если Вы скачали Калейдоскоп ужасов через торрент бесплатно! Внесите свою лепту в развитие PiratBit!
    Комментировать посты могут только пользователи прошедшие не сложную регистрацию
    Показать сообщения:    

    Калейдоскоп ужасов через торрент
    Скачать бесплатно Калейдоскоп ужасов
    Калейдоскоп ужасов скачать торрент
    Калейдоскоп ужасов смотреть онлайн
    Cкачать фильм Калейдоскоп ужасов бесплатно
    Калейдоскоп ужасов скачать торрент в хорошем качестве
    Калейдоскоп ужасов смотреть онлайн бесплатно в хорошем качестве


    Вы не можете начинать темы
    Вы не можете отвечать на сообщения
    Вы не можете редактировать свои сообщения
    Вы не можете удалять свои сообщения
    Вы не можете голосовать в опросах
    Вы не можете прикреплять файлы к сообщениям
    Вы можете скачивать файлы