1 сезон

1 сезон

iTunes

1

КиноПоиск HD

Кинопоиск HD

iTunes

13

1 сезон

RePack

30

Новинка

ВАЖНО

ИГРА 18+

pack

RePack

MK11
pack

Легкие деньги

RePack

jed

RePack

fifa19

RePack

RDR2

RePack

NEED FOR SPEED™ PAYBACK

4 сезон

9 сезон

Бесстыжие 9 сезон

Все сериалы

все сериалы на PB.wtf

RePack

FAR CRY 5
  
Magnet ссылка

Грайндхаус / Grindhouse (Роберт Родригес, Элай Рот, Квентин Тарантино, Эдгар Райт, Роб Зомби) [2007, ужасы, фантастика, боевик, триллер, комедия, криминал, приключения, BDRip 720p by msltel] 2 x VO (профессиональный) piratbit.pw

Грайндхаус через торрент piratbit.pw

Размер: 8.01 GB | Добавлен: 1 год 6 мес. назад | Торрент скачан:26 раз
Скачать  

30-09-2019 09:46 Грайндхаус Скачать торрент  

Название: Грайндхаус
Оригинальное название: Grindhouse
Год выпуска: 2007
Страна: США
Жанр: ужасы, фантастика, боевик, триллер, комедия, криминал, приключения
Продолжительность: 03:11:14
Перевод: закадровый одноголосый

Режиссер: Роберт Родригес, Элай Рот, Квентин Тарантино, Эдгар Райт, Роб Зомби
В ролях: Роуз МакГоун, Курт Расселл, Мэри Элизабет Уинстэд, Зои Белл, Розарио Доусон, Квентин Тарантино, Джош Бролин, Фредди Родригес, Марли Шелтон, Дэнни Трехо, Чич Марин, Джефф Фэйи, Майкл Бин, Ребел Родригес, Навин Эндрюс, Брюс Уиллис, Хулио Оскар Мечосо, Стэйси Фергюсон, Никки Кэтт, Хунг Нгуйен, Сесилия Конти, Томми Никс, Том Савини, Карлос Гальярдо, Скип Рейссиг, Электра Авеллан, Элиз Авеллан, Майкл Паркс, Грег Келли, Джерили Ром

О фильме: Кинолента состоит из двух полнометражных сегментов. Первый сегмент «Грайндхауса» - зомби-хоррор «Планета страха» - снял Роберт Родригес, второй — триллер о маньяке-каскадёре «Доказательство смерти» создал Квентин Тарантино. Несмотря на то, что «Планета страха» и «Доказательство смерти» имеют независимые сюжеты, они связаны целым рядом моментов: например, в них есть несколько общих персонажей, частично совпадает и место действия. Хронологически «Доказательство смерти» предшествует «Планете страха». Помимо этих двух фильмов, в «Грайндхаус» входят четыре трейлера для несуществующих фильмов... (Википедия)



Качество: BDRip 720p
Формат: MKV
Видео: MPEG-4 AVC, 4653 Кбит/с, 1280x544
Аудио 1: русский, AC3, 448 kbps, 6 ch, 48 kHz [закадровый одноголосый, Алексей Матвеев (Doctor Joker) по переводу Stevvie, с ненормативной лексикой]
Аудио 2: русский, AC3, 448 kbps, 6 ch, 48 kHz [закадровый одноголосый, Вадим Назаров) (VadimNaz)]
Аудио 3: английский, AC3, 448 kbps, 6 ch, 48 kHz [оригинал]
Субтитры 1: русские
Субтитры 2: английские
Главы/чаптеры
Общее
Уникальный идентификатор : 172110093954776429612863657294673342193 (0x817B32C83CC71CC9A862CC3BE5DDEEF1)
Полное имя : D:\Video\Грайндхаус.2007.BDRip 720p by msltel.mkv
Формат : Matroska
Версия формата : Version 4
Размер файла : 8,01 Гбайт
Продолжительность : 3 ч. 11 м.
Общий поток : 5999 Кбит/сек
Название фильма : Rip by msltel
Дата кодирования : UTC 2019-09-30 08:45:36
Программа кодирования : mkvmerge v8.2.0 ('World of Adventure') 64bit
Библиотека кодирования : libebml v1.3.1 + libmatroska v1.4.2

Видео
Идентификатор : 1
Формат : AVC
Формат/Информация : Advanced Video Codec
Профиль формата : High@L4.1
Настройки формата : CABAC / 9 Ref Frames
Параметр CABAC формата : Да
Параметр RefFrames формата : 9 кадров
Идентификатор кодека : V_MPEG4/ISO/AVC
Продолжительность : 3 ч. 11 м.
Битрейт : 4653 Кбит/сек
Ширина : 1280 пикселей
Высота : 544 пикселя
Соотношение сторон : 2,35:1
Режим частоты кадров : Постоянный
Частота кадров : 23,976 (24000/1001) кадра/сек
Цветовое пространство : YUV
Субдискретизация насыщенности : 4:2:0
Битовая глубина : 8 бит
Тип развёртки : Прогрессивная
Бит/(Пиксели*Кадры) : 0.279
Размер потока : 6,22 Гбайт (78%)
Библиотека кодирования : x264 core 157 r2935 545de2f
Настройки программы : cabac=1 / ref=9 / deblock=1:-2:-2 / analyse=0x3:0x113 / me=umh / subme=11 / psy=1 / psy_rd=1.00:0.15 / mixed_ref=1 / me_range=32 / chroma_me=1 / trellis=2 / 8x8dct=1 / cqm=0 / deadzone=21,11 / fast_pskip=0 / chroma_qp_offset=-3 / threads=6 / lookahead_threads=1 / sliced_threads=0 / nr=0 / decimate=1 / interlaced=0 / bluray_compat=0 / constrained_intra=0 / bframes=11 / b_pyramid=2 / b_adapt=2 / b_bias=0 / direct=1 / weightb=1 / open_gop=0 / weightp=2 / keyint=230 / keyint_min=23 / scenecut=40 / intra_refresh=0 / rc_lookahead=40 / rc=crf / mbtree=1 / crf=21.0 / qcomp=0.60 / qpmin=0 / qpmax=69 / qpstep=4 / vbv_maxrate=50000 / vbv_bufsize=62500 / crf_max=0.0 / nal_hrd=none / filler=0 / ip_ratio=1.40 / aq=1:1.00
Язык : English
Default : Да
Forced : Нет

Аудио #1
Идентификатор : 2
Формат : AC-3
Формат/Информация : Audio Coding 3
Коммерческое название : Dolby Digital
Идентификатор кодека : A_AC3
Продолжительность : 3 ч. 11 м.
Вид битрейта : Постоянный
Битрейт : 448 Кбит/сек
Каналы : 6 каналов
ChannelLayout : L R C LFE Ls Rs
Частота : 48,0 КГц
Частота кадров : 31,250 кадров/сек (1536 SPF)
Метод сжатия : С потерями
Размер потока : 613 Мбайт (7%)
Заголовок : Алексей Матвеев
Язык : Russian
ServiceKind/String : Complete Main
Default : Да
Forced : Нет

Аудио #2
Идентификатор : 3
Формат : AC-3
Формат/Информация : Audio Coding 3
Коммерческое название : Dolby Digital
Идентификатор кодека : A_AC3
Продолжительность : 3 ч. 11 м.
Вид битрейта : Постоянный
Битрейт : 448 Кбит/сек
Каналы : 6 каналов
ChannelLayout : L R C LFE Ls Rs
Частота : 48,0 КГц
Частота кадров : 31,250 кадров/сек (1536 SPF)
Метод сжатия : С потерями
Размер потока : 613 Мбайт (7%)
Заголовок : Вадим Назаров
Язык : Russian
ServiceKind/String : Complete Main
Default : Нет
Forced : Нет

Аудио #3
Идентификатор : 4
Формат : AC-3
Формат/Информация : Audio Coding 3
Коммерческое название : Dolby Digital
Идентификатор кодека : A_AC3
Продолжительность : 3 ч. 11 м.
Вид битрейта : Постоянный
Битрейт : 448 Кбит/сек
Каналы : 6 каналов
ChannelLayout : L R C LFE Ls Rs
Частота : 48,0 КГц
Частота кадров : 31,250 кадров/сек (1536 SPF)
Метод сжатия : С потерями
Размер потока : 613 Мбайт (7%)
Заголовок : original
Язык : English
ServiceKind/String : Complete Main
Default : Нет
Forced : Нет

Текст #1
Идентификатор : 5
Формат : UTF-8
Идентификатор кодека : S_TEXT/UTF8
Идентификатор кодека/Информация : UTF-8 Plain Text
Продолжительность : 3 ч. 5 м.
Битрейт : 92 бит/сек
ElementCount : 2559
Размер потока : 125 Кбайт (0%)
Заголовок : русские
Язык : Russian
Default : Нет
Forced : Нет

Текст #2
Идентификатор : 6
Формат : UTF-8
Идентификатор кодека : S_TEXT/UTF8
Идентификатор кодека/Информация : UTF-8 Plain Text
Продолжительность : 3 ч. 5 м.
Битрейт : 62 бит/сек
ElementCount : 2432
Размер потока : 84,3 Кбайт (0%)
Заголовок : английские
Язык : English
Default : Нет
Forced : Нет

Меню
00:00:00.000 : :Machete
00:03:43.598 : :Cherry Darling
00:06:39.565 : :It's Go-Go, Not Cry-Cry
00:08:33.679 : :Where's The Shift?
00:13:26.347 : :Now, That's A Rump Roast
00:15:00.774 : :No Dead Bodies for Dada Tonight
00:16:18.227 : :Palomita
00:19:34.840 : :Prescription: Pain
00:23:08.428 : :Road Kill
00:25:15.639 : :One Severed Limb
00:29:07.287 : :Best Damn Bbq in Texas
00:30:09.849 : :Cheating Lying Sack
00:35:05.645 : :Police Station Assault
00:39:26.405 : :Infected
00:41:43.918 : :Dakota's Bad Hand
00:43:20.598 : :Cherry's New Leg
00:46:39.296 : :Crazy Babysitter Twins
00:47:49.324 : :Toothless Buddies
00:54:16.670 : :Ring in the Jacket
00:57:22.397 : :Bone Shack Attack
01:02:10.435 : :Zero to Fifty in Four
01:05:21.250 : :Project Terror
01:11:04.009 : :Honorable Discharge
01:14:00.561 : :Melting Member
01:17:47.746 : :Killer Legs
01:23:29.004 : :Cherry's Dance of Death
01:25:26.162 : :Helicopter Sicko Chopper
01:29:01.419 : :Two Against the World
01:31:09.756 : :Werewolf Women Of The SS
01:33:26.684 : :Don't
01:34:52.228 : :Thanksgiving
01:37:29.594 : :Our Feature Presentation
01:40:46.207 : :The City of Austin, Texas
01:44:09.618 : :"The Infamous Butterfly"
01:49:11.044 : :Stuntman Mike On the Prowl
01:53:55.328 : :The Texas Chili Parlor
01:55:07.651 : :Icy Hot
01:59:31.956 : :Six Shots of Wild Turkey
02:02:04.943 : :"Are You Famous or Something?"
02:05:29.439 : :The Lap Dance
02:10:11.804 : :"Looking Good, Cannonball Run"
02:13:16.572 : :100% Death Proof
02:16:27.721 : :Dave Dee, Dozy, Beaky Mick & Tich
02:19:46.712 : :Ranger Earl McGraw
02:22:34.796 : :Stuntman Mike on the Prowl Again
02:27:13.992 : :Zoë the Cat
02:34:30.928 : :Jasper's Farm
02:43:01.689 : :Ship's Mast
02:47:47.057 : :Showdown at 100 MPH
02:55:52.167 : :The Tables Have Turned
03:05:06.804 : :End Credits
piratbit.pw



Скачать Грайндхаус через торрент https://a.radikal.ru/a17/1909/df/ea230099554d.jpg Скачать фильм Грайндхаус через торрент бесплантно в хорошем качестве О фильме: Кинолента состоит из двух полнометражных сегментов. Первый сегмент «Грайндхауса» - зомби-хоррор «Планета страха» - снял Роберт ... 10 10 2
Торрент: Зарегистрирован [2019-09-30 09:46] · скачан: 26 раз
Статус: √ проверено
Размер: 8.01 GB
Как cкачать? Как скачать Грайндхаус через торрент | UTorrent

% Раздел Тема Автор DL S | L
Фильмы с авторской озвучкой [ 5.38 GB ] Грайндхаус / Grindhouse [2007 BDRip by msltel] 2 x VO msltel Скачать
1 | 0
Порно фильмы с русским переводом [ 1.44 GB ] Грайндхаус XXX: Двойной сеанс / Grindhouse XXX: A Double Feature [2011 Feature DVDRip одноголосый] Pir@tya2010 Скачать
1 | 0
Фильмы (Blu-ray, BD-Remux, HDDVD) [ 47.12 GB ] Грайндхаус / Grindhouse [2007 BDRemux 1080p] 2xVO + Original + Sub Assasinca Скачать
1 | 0
Фильмы 2006-2008 [ 4.36 GB ] Грайндхаус / Grindhouse [2007 BDRip VO] Assasinca Скачать
1 | 0
Фильмы (Blu-ray, BD-Remux, HDDVD) [ 47.12 GB ] Грайндхаус / Grindhouse [2007 BDRemux VO] Анонимный Скачать
1 | 0
Фильмы 2006-2008 [ 2.9 GB ] Грайндхаус / Grindhouse [2007 BDRip] |Theatrical Cut| + VO Mr. Freeman Скачать
1 | 0
Фильмы (Blu-ray, BD-Remux, HDDVD) [ 47.12 GB ] Грайндхаус / Grindhouse [2007 BDRemux 1080p] 2xVO + Original + Sub Mr. Freeman Скачать
1 | 0

28-11-2019 20:33  

Отключить всю рекламу на сайте

30-09-2019 22:04 Грайндхаус Скачать торрент  

Топик был перенесен из форума Фильмы [HD 720p, 1080p] (Звук Cam, VO, DVO) в форум Фильмы с авторской озвучкой


bober100piratbit.pw



    Дорогой пользователь! Огромная просьба, поблагодарите релизера, оцените раздачу и оставьте свои комментарий, если Вы скачали Грайндхаус через торрент бесплатно! Внесите свою лепту в развитие PiratBit!
    Комментировать посты могут только пользователи прошедшие не сложную регистрацию
    Показать сообщения:    

    Грайндхаус через торрент
    Скачать бесплатно Грайндхаус
    Грайндхаус скачать торрент
    Грайндхаус смотреть онлайн
    Cкачать фильм Грайндхаус бесплатно
    Грайндхаус скачать торрент в хорошем качестве
    Грайндхаус смотреть онлайн бесплатно в хорошем качестве


    Вы не можете начинать темы
    Вы не можете отвечать на сообщения
    Вы не можете редактировать свои сообщения
    Вы не можете удалять свои сообщения
    Вы не можете голосовать в опросах
    Вы не можете прикреплять файлы к сообщениям
    Вы можете скачивать файлы