Marvel's Avengers Deluxe Edition (супер цена) 159р. Внимание количество ограничено!!!

2 сезон

iTunes

iTunes

1

iTunes

iTunes

iTunes

WEBRip

iTunes

30
pack

Новость дня

ВАЖНО

!!Акция!!

Alien_RageХит недели

RePack

Horizon Zero Dawn

ИГРА 18+

pack

RePack

jed

!!Акция!!

Alien_Rage

RePack

fifa19

RePack

Assassins Creed: Odyssey

RePack

NEED FOR SPEED™ PAYBACK

4 сезон

9 сезон

Бесстыжие 9 сезон

Все сериалы

все сериалы на PB.wtf

RePack

FAR CRY 5
  

Холодное сердце / Frozen (Крис Бак, Дженнифер Ли) [2013, Комедия, приключения, семейный, фэнтези, мультфильм, UHD BDRip 2160p] [SDR] DUB (rus, ukr) [Лицензия] +AVO piratbit.pw

Холодное сердце через торрент piratbit.pw

Раздают: 1 [ 0 KB/s ]
Размер: 17.28 GB | Добавлен: 11 мес. назад | Торрент скачан:63 раза
Скачать  

29-09-2019 05:17 Холодное сердце Скачать торрент  

Холодное сердце / Frozen
Год выпуска: 2013
Страна: США
Жанр: Комедия, приключения, семейный, фэнтези, мультфильм
Продолжительность: 01:42:12
Перевод:

#1: Дублированный | Лицензия
#2: Авторский | Живов

Субтитры: Ukrainian (Forced, iTunes), Russian (iTunes), English (SDH-COLORED)

Режиссер: Крис Бак, Дженнифер Ли

rating

В ролях: Кристен Белл, Идина Мензел, Джонатан Грофф, Джош Гэд, Сантино Фонтана, Алан Тьюдик, Киаран Хайндс, Крис Уильямс (I), Стивен Дж. Андерсон, Майа Уилсон

Описание: Когда древнее предсказание сбывается и королевство погружается в объятия вечной зимы, трое бесстрашных героев — принцесса Анна, отважный Кристофф и его верный олень Свен — отправляются в горы, чтобы найти сестру Анны, Эльзу, которая может снять со страны леденящее заклятие. По пути их ждет множество увлекательных сюрпризов и захватывающих приключений: встреча с мистическими троллями, знакомство с очаровательным снеговиком по имени Олаф, горные вершины покруче Эвереста и магия в каждой снежинке. Анне и Кристоффу предстоит сплотиться и противостоять могучей стихии, чтобы спасти королевство и тех, кто им дорог…

Качество: UHD BDRip 2160p
Формат: MKV

Видео: HEVC SDR, 16.5 Мбит/с, 3840x1608 23.976 кадр/с, 10 бит
Аудио #01: 48 kHz, AC3, 5.1, 640 Kbps | Лицензия | RUS |
Аудио #02: 48 kHz, DTS, 5.1, 1509 Kbps | Живов | RUS |
Аудио #03: 48 kHz, AC3, 5.1, 384 Kbps | Дублированный | UKR |
Аудио #04: 48 kHz, TrueHD, 7.1, 4437 Kbps | Оригинал | ENG |
Аудио #05: 48 kHz, AC3, 5.1, 640 Kbps | Оригинал | ENG |
скриншот  скриншот  скриншот  

скриншот  скриншот  скриншот  

Общее
Уникальный идентификатор : 177425661492326361811841139844244296703 (0x857AF07EF2C8A7808638028FB607D3FF)
Полное имя : D:\Передел\Frozen.2013.2160p.UHD.BDRip.SDR.x265.10bit.Master5.mkv
Формат : Matroska
Версия формата : Version 4
Размер файла : 17,3 Гбайт
Продолжительность : 1 ч. 42 м.
Режим общего битрейта : Переменный
Общий поток : 24,2 Мбит/сек
Название фильма : Frozen.2013.2160p.UHD.BDRip.SDR.x265.10bit.Master5
Дата кодирования : UTC 2019-09-28 21:33:33
Программа кодирования : mkvmerge v7.9.0 ('Birds') 64bit
Библиотека кодирования : libebml v1.3.1 + libmatroska v1.4.2
Обложка : Yes
Attachments : cover_land.jpg / small_cover.jpg / small_cover_land.jpg / cover.jpg

Видео
Идентификатор : 1
Формат : HEVC
Формат/Информация : High Efficiency Video Coding
Профиль формата : Main 10@L5.1@High
Идентификатор кодека : V_MPEGH/ISO/HEVC
Продолжительность : 1 ч. 42 м.
Битрейт : 16,5 Мбит/сек
Ширина : 3840 пикселей
Высота : 1608 пикселей
Соотношение сторон : 2,40:1
Режим частоты кадров : Постоянный
Частота кадров : 23,976 (24000/1001) кадра/сек
Цветовое пространство : YUV
Субдискретизация насыщенности : 4:2:0
Битовая глубина : 10 бит
Бит/(Пиксели*Кадры) : 0.112
Размер потока : 11,8 Гбайт (68%)
Заголовок : Frozen.2013.2160p.UHD.BDRip.SDR.x265.10bit.Master5
Библиотека кодирования : x265 3.0+1-ed72af837053:[Windows][GCC 8.2.0][64 bit] 10bit
Настройки программы : cpuid=1111039 / frame-threads=16 / numa-pools=44,44 / wpp / no-pmode / no-pme / no-psnr / no-ssim / log-level=2 / input-csp=1 / input-res=3840x1608 / interlace=0 / total-frames=147042 / level-idc=51 / high-tier=1 / uhd-bd=0 / ref=3 / no-allow-non-conformance / repeat-headers / annexb / aud / hrd / info / hash=0 / no-temporal-layers / no-open-gop / min-keyint=1 / keyint=24 / gop-lookahead=0 / bframes=6 / b-adapt=2 / b-pyramid / bframe-bias=0 / rc-lookahead=25 / lookahead-slices=4 / scenecut=40 / radl=0 / no-splice / no-intra-refresh / ctu=64 / min-cu-size=8 / no-rect / no-amp / max-tu-size=32 / tu-inter-depth=1 / tu-intra-depth=1 / limit-tu=0 / rdoq-level=0 / dynamic-rd=0.00 / no-ssim-rd / signhide / no-tskip / nr-intra=0 / nr-inter=0 / no-constrained-intra / strong-intra-smoothing / max-merge=2 / limit-refs=3 / no-limit-modes / me=1 / subme=2 / merange=57 / temporal-mvp / weightp / no-weightb / no-analyze-src-pics / deblock=1:1 / no-sao / no-sao-non-deblock / rd=3 / no-early-skip / rskip / no-fast-intra / no-tskip-fast / no-cu-lossless / no-b-intra / no-splitrd-skip / rdpenalty=0 / psy-rd=0.40 / psy-rdoq=0.00 / no-rd-refine / no-lossless / cbqpoffs=0 / crqpoffs=0 / rc=crf / crf=13.0 / qcomp=0.60 / qpstep=4 / stats-write=0 / stats-read=0 / vbv-maxrate=160000 / vbv-bufsize=160000 / vbv-init=0.9 / crf-max=0.0 / crf-min=0.0 / ipratio=1.40 / pbratio=1.30 / aq-mode=1 / aq-strength=0.40 / cutree / zone-count=0 / no-strict-cbr / qg-size=32 / no-rc-grain / qpmax=69 / qpmin=0 / no-const-vbv / sar=1 / overscan=0 / videoformat=5 / range=0 / colorprim=2 / transfer=2 / colormatrix=2 / chromaloc=0 / display-window=0 / max-cll=0,0 / min-luma=0 / max-luma=1023 / log2-max-poc-lsb=8 / vui-timing-info / vui-hrd-info / slices=1 / opt-qp-pps / opt-ref-list-length-pps / no-multi-pass-opt-rps / scenecut-bias=0.05 / no-opt-cu-delta-qp / no-aq-motion / no-hdr / no-hdr-opt / no-dhdr10-opt / no-idr-recovery-sei / analysis-reuse-level=5 / scale-factor=0 / refine-intra=0 / refine-inter=0 / refine-mv=0 / refine-ctu-distortion=0 / no-limit-sao / ctu-info=0 / no-lowpass-dct / refine-analysis-type=0 / copy-pic=1 / max-ausize-factor=1.0 / no-dynamic-refine / no-single-sei / no-hevc-aq / qp-adaptation-range=1.00
Default : Да
Forced : Нет

Аудио #1
Идентификатор : 2
Формат : AC-3
Формат/Информация : Audio Coding 3
Коммерческое название : Dolby Digital
Идентификатор кодека : A_AC3
Продолжительность : 1 ч. 42 м.
Вид битрейта : Постоянный
Битрейт : 640 Кбит/сек
Каналы : 6 каналов
Channel layout : L R C LFE Ls Rs
Частота : 48,0 КГц
Частота кадров : 31,250 кадров/сек (1536 SPF)
Битовая глубина : 16 бит
Метод сжатия : С потерями
Размер потока : 468 Мбайт (3%)
Заголовок : AC3 5.1 @ 640 kbps - DUB, Blu-ray CEE
Язык : Russian
ServiceKind/String : Complete Main
Default : Да
Forced : Нет

Аудио #2
Идентификатор : 3
Формат : AC-3
Формат/Информация : Audio Coding 3
Коммерческое название : Dolby Digital
Идентификатор кодека : A_AC3
Продолжительность : 1 ч. 42 м.
Вид битрейта : Постоянный
Битрейт : 384 Кбит/сек
Каналы : 6 каналов
Channel layout : L R C LFE Ls Rs
Частота : 48,0 КГц
Частота кадров : 31,250 кадров/сек (1536 SPF)
Битовая глубина : 16 бит
Метод сжатия : С потерями
Размер потока : 281 Мбайт (2%)
Заголовок : AC3 5.1 @ 384 kbps - DUB, iTunes
Язык : Ukrainian
ServiceKind/String : Complete Main
Default : Нет
Forced : Нет

Аудио #3
Идентификатор : 4
Формат : DTS
Формат/Информация : Digital Theater Systems
Идентификатор кодека : A_DTS
Продолжительность : 1 ч. 42 м.
Вид битрейта : Постоянный
Битрейт : 1509 Кбит/сек
Каналы : 6 каналов
Channel layout : C L R Ls Rs LFE
Частота : 48,0 КГц
Частота кадров : 93,750 кадра/сек (512 SPF)
Битовая глубина : 24 бит
Метод сжатия : С потерями
Размер потока : 1,08 Гбайт (6%)
Заголовок : DTS 5.1 @ 1536 kbps - AVO, Y.Zhivov
Язык : Russian
Default : Нет
Forced : Нет

Аудио #4
Идентификатор : 5
Формат : MLP FBA 16-ch
Формат/Информация : Meridian Lossless Packing FBA with 16-channel presentation
Коммерческое название : Dolby TrueHD with Dolby Atmos
Идентификатор кодека : A_TRUEHD
Продолжительность : 1 ч. 42 м.
Вид битрейта : Переменный
Битрейт : 4437 Кбит/сек
Максимальный битрейт : 4392 Кбит/сек
Каналы : 8 каналов
Channel layout : L R C LFE Ls Rs Lb Rb
Частота : 48,0 КГц
Частота кадров : 1200,000 кадров/сек (40 SPF)
Метод сжатия : Без потерь
Размер потока : 3,17 Гбайт (18%)
Язык : English
Default : Нет
Forced : Нет
Number of dynamic objects : 13
Bed channel count : 1 канал
Bed channel configuration : LFE

Аудио #5
Идентификатор : 6
Формат : AC-3
Формат/Информация : Audio Coding 3
Коммерческое название : Dolby Digital
Идентификатор кодека : A_AC3
Продолжительность : 1 ч. 42 м.
Вид битрейта : Постоянный
Битрейт : 640 Кбит/сек
Каналы : 6 каналов
Channel layout : L R C LFE Ls Rs
Частота : 48,0 КГц
Частота кадров : 31,250 кадров/сек (1536 SPF)
Битовая глубина : 16 бит
Метод сжатия : С потерями
Размер потока : 468 Мбайт (3%)
Язык : English
ServiceKind/String : Complete Main
Default : Нет
Forced : Нет

Текст #1
Идентификатор : 7
Формат : UTF-8
Идентификатор кодека : S_TEXT/UTF8
Идентификатор кодека/Информация : UTF-8 Plain Text
Продолжительность : 34 м. 46 с.
Битрейт : 0 бит/сек
ElementCount : 4
Размер потока : 138 байт (0%)
Заголовок : Forced, iTunes
Язык : Ukrainian
Default : Нет
Forced : Нет

Текст #2
Идентификатор : 8
Формат : UTF-8
Идентификатор кодека : S_TEXT/UTF8
Идентификатор кодека/Информация : UTF-8 Plain Text
Продолжительность : 1 ч. 30 м.
Битрейт : 93 бит/сек
ElementCount : 1503
Размер потока : 62,4 Кбайт (0%)
Заголовок : iTunes
Язык : Russian
Default : Нет
Forced : Нет

Текст #3
Идентификатор : 9
Формат : UTF-8
Идентификатор кодека : S_TEXT/UTF8
Идентификатор кодека/Информация : UTF-8 Plain Text
Продолжительность : 1 ч. 39 м.
Битрейт : 57 бит/сек
ElementCount : 1648
Размер потока : 42,2 Кбайт (0%)
Язык : English
Default : Нет
Forced : Нет

Текст #4
Идентификатор : 10
Формат : UTF-8
Идентификатор кодека : S_TEXT/UTF8
Идентификатор кодека/Информация : UTF-8 Plain Text
Продолжительность : 1 ч. 41 м.
Битрейт : 66 бит/сек
ElementCount : 1990
Размер потока : 49,9 Кбайт (0%)
Заголовок : SDH
Язык : English
Default : Нет
Forced : Нет

Текст #5
Идентификатор : 11
Формат : UTF-8
Идентификатор кодека : S_TEXT/UTF8
Идентификатор кодека/Информация : UTF-8 Plain Text
Продолжительность : 1 ч. 41 м.
Битрейт : 92 бит/сек
ElementCount : 1990
Размер потока : 69,3 Кбайт (0%)
Заголовок : SDH-COLORED
Язык : English
Default : Нет
Forced : Нет

Меню
00:00:00.000 : en:00:00:00.000
00:05:59.818 : en:00:05:59.818
00:11:37.947 : en:00:11:37.947
00:19:53.734 : en:00:19:53.734
00:31:03.195 : en:00:31:03.195
00:38:39.484 : en:00:38:39.484
00:44:21.284 : en:00:44:21.284
00:50:51.507 : en:00:50:51.507
00:57:48.381 : en:00:57:48.381
01:02:57.399 : en:01:02:57.399
01:09:36.047 : en:01:09:36.047
01:13:34.869 : en:01:13:34.869
01:18:07.599 : en:01:18:07.599
01:22:33.740 : en:01:22:33.740
01:27:10.809 : en:01:27:10.809
01:32:33.506 : en:01:32:33.506

piratbit.pw



Скачать Холодное сердце через торрент https://img15.lostpic.net/2019/09/24/5ed3bf004a67096a86b5f8d98b50adbc.jpg Скачать фильм Холодное сердце через торрент бесплантно в хорошем качестве Описание: Когда древнее предсказание сбывается и королевство погружается в объятия вечной зимы, трое бесстрашных героев — принцесса Анна, ... 10 10 3
Торрент: Зарегистрирован [2019-09-29 05:17] · скачан: 63 раз
Статус: √ проверено
Размер: 17.28 GB
Как cкачать? Как скачать Холодное сердце через торрент | qTorrent

% Раздел Тема Автор DL S | L
Ultra HD (UHD: 2K, 4K, 8K) [ 52 GB ] Холодное сердце / Frozen [2013 мультфильм UHD BDRemux 2160p] DUB [] +2xAVO bober100 Скачать
1 | 0
Зарубежные Мультфильмы (BDRip 1080p, 720p, Blu-ray, BD-Remux) [ 26.3 GB ] Холодное сердце / Frozen [2013 мультфильм мюзикл BD Remux 1080p] AVO [Ю.Живов] +DUB [] bober100 Скачать
1 | 0

28-11-2019 20:33  

Отключить всю рекламу на сайте

    Дорогой пользователь! Огромная просьба, поблагодарите релизера, оцените раздачу и оставьте свои комментарий, если Вы скачали Холодное сердце через торрент бесплатно! Внесите свою лепту в развитие PiratBit!
    Комментировать посты могут только пользователи прошедшие не сложную регистрацию
    Показать сообщения:    

    Холодное сердце через торрент
    Скачать бесплатно Холодное сердце
    Холодное сердце скачать торрент
    Холодное сердце смотреть онлайн
    Cкачать фильм Холодное сердце бесплатно
    Холодное сердце скачать торрент в хорошем качестве
    Холодное сердце смотреть онлайн бесплатно в хорошем качестве


    Вы не можете начинать темы
    Вы не можете отвечать на сообщения
    Вы не можете редактировать свои сообщения
    Вы не можете удалять свои сообщения
    Вы не можете голосовать в опросах
    Вы не можете прикреплять файлы к сообщениям
    Вы можете скачивать файлы