новый адрес
Мега распродажа FORZA HORIZON 4 ULTIMATE+ВСЕ DLC+ОНЛАЙН всего за 499р. 349 руб. (супер цена). Внимание количество ограничено!!!

iTunes

1+1

iTunes

мы

iTunes

1

iTunes

Чернобыль

iTunes

Ральф против интернета

Лицензия

ПШазам

Лицензия

Оно 2

Лицензия

30
pack

ВАЖНО

!!Акция!!

Alien_RageХит недели

RePack

Resident Evil 21

ИГРА 18+

pack

RePack

jed

!!Акция!!

Alien_Rage

RePack

fifa19

RePack

Assassins Creed: Odyssey

RePack

NEED FOR SPEED™ PAYBACK

3 сезон

9 сезон

Бесстыжие 9 сезон

Все сериалы

все сериалы на PB.wtf

RePack

FAR CRY 5
Ребята, катастрофически не хватает 1900р. для оплаты серверов за Октябрь (всвязи с блокировками трафик упал в 3 раза), 1-2р., выручайте.
  

Явление / Emergence / Сезон: 1 / Серии: 1-5 из 10 (Питер Лето) [2019, Фантастика, драма WEB-DL 720p] MVO [NewStudio] piratbit.pw

Явление через торрент piratbit.pw

Размер: 7.16 GB | Добавлен: 12 д. назад | Торрент скачан:7 раз
Скачать  

28-09-2019 19:24 Явление Скачать торрент  

Явление | Emergence
«Protecting her secret is just the beginning»
Производство: США
Год выпуска: 2019
Жанр: Фантастика, драма
Продолжительность: ~ 00:42:00 серия
Премьера (мир): 24 сентября 2019
Перевод: Профессиональный (многоголосый закадровый) | NewStudio
Субтитры: Отсутствуют

Режиссёр: Питер Лето, Пол МакГиган, Алекс Пиллаи

В ролях: Эшли Ауфдерхайд, Роберт Бэйли мл., Клэнси Браун, Куинси Данн-Бэйкер, Дональд Фэйсон, Забрина Гевара, Чарли Кевин, Алекса Суинтон, Овайн Йомэн

Описание:
Местный шериф выезжает на место преступления, где обнаруживает маленькую девочку с амнезией. Женщина решает взять ребенка на попечение, пока у той не восстановится память. Но малышка оказывается очень необычной, она обладает феноменальными способностями, из-за которых становится предметом интереса спецслужб. В то же время шериф понимает, что в преступлении, с которым каким-то образом связана девочка, замешаны влиятельные люди, которые способны на все, чтобы правда не всплыла наружу.



Качество: WEB-DL 720p
Формат: MKV
Видео: AVC, 1280 x 720 (1.778), 23.976 fps, ~4004 kbps
Аудио Rus: AC-3, 48 kHz, 6 ch, 384 kbps |NewStudio|
Аудио Eng: AC-3, 48 kHz, 6 ch, 384 kbps |Original|


Реклама: Отсутствует
Общее
Уникальный идентификатор : 247035593452856357957997585925205661002 (0xB9D9531DF7EE6F680E03222D7EC4154A)
Полное имя : E:\_Сериалы\_Сериалы\Явление\Emergence.s01.WEBDL.720p.NewStudio\Emergence.s01e01.WEBDL.720p.NewStudio.mkv
Формат : Matroska
Версия формата : Version 4
Размер файла : 1,42 Гбайт
Продолжительность : 42 м. 26 с.
Общий поток : 4774 Кбит/сек
Дата кодирования : UTC 2019-09-28 18:19:54
Программа кодирования : mkvmerge v37.0.0 ('Leave It') 64-bit
Библиотека кодирования : libebml v1.3.9 + libmatroska v1.5.2

Видео
Идентификатор : 1
Формат : AVC
Формат/Информация : Advanced Video Codec
Профиль формата : High@L3.1
Настройки формата : 2 Ref Frames
Параметр CABAC формата : Нет
Параметр RefFrames формата : 2 кадра
Идентификатор кодека : V_MPEG4/ISO/AVC
Продолжительность : 42 м. 26 с.
Битрейт : 4004 Кбит/сек
Ширина : 1280 пикселей
Высота : 720 пикселей
Соотношение сторон : 16:9
Режим частоты кадров : Постоянный
Частота кадров : 23,976 (23976/1000) кадра/сек
Цветовое пространство : YUV
Субдискретизация насыщенности : 4:2:0
Битовая глубина : 8 бит
Тип развёртки : Прогрессивная
Бит/(Пиксели*Кадры) : 0.181
Размер потока : 1,19 Гбайт (84%)
Язык : English
Default : Да
Forced : Нет
Цветовой диапазон : Limited
Основные цвета : BT.709
Характеристики трансфера : BT.709
Коэффициенты матрицы : BT.709

Аудио #1
Идентификатор : 2
Формат : AC-3
Формат/Информация : Audio Coding 3
Коммерческое название : Dolby Digital
Идентификатор кодека : A_AC3
Продолжительность : 42 м. 26 с.
Вид битрейта : Постоянный
Битрейт : 384 Кбит/сек
Каналы : 6 каналов
ChannelLayout : L R C LFE Ls Rs
Частота : 48,0 КГц
Частота кадров : 31,250 кадров/сек (1536 SPF)
Метод сжатия : С потерями
Задержка видео : -42 мс.
Размер потока : 117 Мбайт (8%)
Язык : Russian
ServiceKind/String : Complete Main
Default : Да
Forced : Нет

Аудио #2
Идентификатор : 3
Формат : AC-3
Формат/Информация : Audio Coding 3
Коммерческое название : Dolby Digital
Идентификатор кодека : A_AC3
Продолжительность : 42 м. 26 с.
Вид битрейта : Постоянный
Битрейт : 384 Кбит/сек
Каналы : 6 каналов
ChannelLayout : L R C LFE Ls Rs
Частота : 48,0 КГц
Частота кадров : 31,250 кадров/сек (1536 SPF)
Метод сжатия : С потерями
Задержка видео : -42 мс.
Размер потока : 117 Мбайт (8%)
Язык : English
ServiceKind/String : Complete Main
Default : Нет
Forced : Нет
Раздача ведётся путём добавления новых серий; при каждом добавлении создаётся новый торрент.
Чтобы начать докачку новой серии, пользователям необходимо сделать следующее:
1. остановить скачивание,
2. удалить старый торрент у себя из клиента (старые серии удалять не надо),
3. скачать новый торрент и запустить его у себя в клиенте вместо старого, при этом указать клиенту путь в старую папку, куда и должно происходить скачивание новых серий.

Ваш клиент при этом должен произвести хеширование (проверку) старой папки (если не производит сам - помогите ему сделать это), и будет докачивать только те серии которых у вас ещё нет. Старые серии при этом не удаляются, а продолжают раздаваться!

Eсли вы уже удалили старые серии, то предотвратить повторную закачку старых серий можно, отжав галочку в соответствующих местах при запуске нового торрента. По возможности, желательно не удалять старые серии как можно дольше, чтобы релизёр не столько продолжал раздавать старые серии, а смог сконцентрироваться на новых.

Совет для тех, кто не хочет ждать перехеширования:
Создайте ещё одну папку рядом с папкой сериала (рядом, а не в ней!!!). Каждую новую серию после удачной загрузки копируйте в новую папку так чтобы ваша основная папка всегда была пуста. Когда ваш новый торрент предложит вам закачать все файлы, выберете только последнюю. Для сидирования же укажите адрес новой папки.

Как закачать отдельный файл из торрента или докачать ранее пропущенные файлы торрента!
1. Открыть торрент
2. Снять галки с тех файлов торрента, которые мы не хотим закачивать. Оставляем только на нужных нам файлах (файле).
3. Нажать О.К.

В клиенте utorrent

Инструкция

1) Открыть торрент


2) Снять галки с тех файлов торрента, которые мы не хотим закачивать:

* либо вручную, снимая с каждого файла галку( скрин №1)
* либо, нажав кнопку "Снять метки (Select None)", сняв сразу со всех файлов(скрин №2)
№1

№2

Оставляем только на нужных нам файлах (файле).

3)Нажать О.К
Приятного просмотра!!!piratbit.pw



Скачать Явление через торрент https://i1.imageban.ru/out/2019/09/28/4a66e161a878855156316fbcc63d163c.jpg Скачать фильм Явление через торрент бесплантно в хорошем качестве Описание:Местный шериф выезжает на место преступления, где обнаруживает маленькую девочку с амнезией. Женщина решает взять ребенка на ... 10 10 3
Торрент: Зарегистрирован [2019-11-08 15:38] · скачан: 7 раз
Статус: √ проверено
Размер: 7.16 GB
Как cкачать? Как скачать Явление через торрент | qTorrent

% Раздел Тема Автор DL S | L
Зарубежные сериалы [ 7.77 GB ] Явление / Emergence / Сезон: 1 / Серии: 1-5 из 10 [2019 WEB-DL 720p] MVO [TVShows] bober100 Скачать
1 | 0
Зарубежные сериалы [ 15.27 GB ] Явление / Emergence / Сезон: 1 / Серии: 1-5 из 10 [2019 WEB-DL 1080p] MVO [TVShows] bober100 Скачать
1 | 0


Последний раз редактировалось: bober100 (2019-11-08 15:37), всего редактировалось 2 раз(а)


>> Регистрируемся здесь <<






Отзывы и комментарии о схеме читаем и пишем здесь: ---> Отзывы и комментарии о схеме

Новые благодарочки в телеграм довольных пользователей:
скриншот   скриншот   скриншот   скриншот   скриншот

29-09-2019 07:28 Явление Скачать торрент  

СЕРИАЛ НАЗЫВАЕТСЯ "ПОЯВЛЕНИЕ"!!!!!!!piratbit.pw



    Дорогой пользователь! Огромная просьба, поблагодарите релизера, оцените раздачу и оставьте свои комментарий, если Вы скачали Явление через торрент бесплатно! Внесите свою лепту в развитие PiratBit!
    Комментировать посты могут только пользователи прошедшие не сложную регистрацию
    Показать сообщения:    

    Явление через торрент
    Скачать бесплатно Явление
    Явление скачать торрент
    Явление смотреть онлайн
    Cкачать фильм Явление бесплатно
    Явление скачать торрент в хорошем качестве
    Явление смотреть онлайн бесплатно в хорошем качестве


    Вы не можете начинать темы
    Вы не можете отвечать на сообщения
    Вы не можете редактировать свои сообщения
    Вы не можете удалять свои сообщения
    Вы не можете голосовать в опросах
    Вы не можете прикреплять файлы к сообщениям
    Вы можете скачивать файлы