1 сезон

1 сезон

iTunes

1

КиноПоиск HD

Кинопоиск HD

iTunes

13

1 сезон

RePack

30

Новинка

ВАЖНО

ИГРА 18+

pack

RePack

MK11
pack

Легкие деньги

RePack

jed

RePack

fifa19

RePack

RDR2

RePack

NEED FOR SPEED™ PAYBACK

4 сезон

9 сезон

Бесстыжие 9 сезон

Все сериалы

все сериалы на PB.wtf

RePack

FAR CRY 5
  
Magnet ссылка

Час волка / The Wolf Hour (Алистэр Бэнкс Гриффин) [2019, триллер, драма, WEB-DL 1080p] AVO [Важенин] - ExKinoRay piratbit.pw

Час волка через торрент piratbit.pw

Качают: 1 [ 0 KB/s ]
Размер: 3.74 GB | Добавлен: 1 год 6 мес. назад | Торрент скачан:26 раз
Скачать  

25-09-2019 00:20 Час волка Скачать торрент  

Название: Час волка
Оригинальное название: The Wolf Hour
Год выпуска: 2019
Жанр: Триллер, драма, детектив
Режиссер: Алистэр Бэнкс Гриффин
В ролях: Наоми Уоттс, Дженнифер Или, Эмори Коэн, Джереми Бобб, Бреннан Браун, Келвин Харрисон, Марица Веер, Педро Халливуд, Джастин Кларк, Энджел Кристиан Роман

Описание: После трагических событий, связанных с последней книгой, Джун Ли - известная писательница и лидер антиэлитарного движения США добровольно становится затворницей в своей квартире в Южном Бронксе. На несколько лет она выпадает из новостной повестки и ведёт такую не слишком радостную жизнь, всячески стараясь изолироваться от окружающих. А за её окнами разворачиваются пугающие и невесёлые события. Жаркое лето 1977 года становится таким не только из-за температуры. Страсти в городе накаляются и кажется вот-вот вспыхнет пожар массовых беспорядков.

rating

Страна: США
Студия: Automatik, Bradley Pilz Productions, HanWay Films
Продолжительность: 01:39:19
Перевод: Авторский - А.Важенин [BadBajo]

БЕЗ КАКОЙ-ЛИБО РЕКЛАМЫ!

Формат: MKV
Качество: WEB-DL 1080p
Видео: MPEG-4 AVC, 1906x798 (2.40:1), 23.976 fps, 4513 Kbps, 0.124 bit/pixel
Аудио #01: 48 kHz, AC3, 5.1, 384 Kbps | RUS |
Аудио #02: 48 kHz, AC3, 5.1, 384 Kbps | Оригинал | ENG |
Субтитры: Английские
General
Unique ID : 171469644440005523065854688986876713980 (0x80FFDA2EE4D59FE7AA3CD194267D9BFC)
Complete name : F:\The.Wolf.Hour.2019.AVO.1080p.WEB-DL.ExKinoRay.mkv
Format : Matroska
Format version : Version 2
File size : 3.74 GiB
Duration : 1 h 39 min
Overall bit rate : 5 389 kb/s
Movie name : The Wolf Hour 2019 from ExKinoRay
Encoded date : UTC 2019-09-24 19:17:45
Writing application : mkvmerge v5.6.0 ('Kenya Kane') built on May 27 2012 16:44:04
Writing library : libebml v1.2.3 + libmatroska v1.3.0

Video
ID : 1
Format : AVC
Format/Info : Advanced Video Codec
Format profile : High@L4
Format settings, CABAC : Yes
Format settings, ReFrames : 5 frames
Codec ID : V_MPEG4/ISO/AVC
Duration : 1 h 39 min
Bit rate : 4 513 kb/s
Width : 1 906 pixels
Height : 798 pixels
Display aspect ratio : 2.40:1
Frame rate mode : Constant
Frame rate : 23.976 FPS
Color space : YUV
Chroma subsampling : 4:2:0
Bit depth : 8 bits
Scan type : Progressive
Bits/(Pixel*Frame) : 0.124
Stream size : 3.13 GiB (84%)
Title : The.Wolf.Hour.2019.1080p
Language : English
Default : Yes
Forced : No
Color range : Limited
Color primaries : BT.709
Transfer characteristics : BT.709
Matrix coefficients : BT.709

Audio #1
ID : 2
Format : AC-3
Format/Info : Audio Coding 3
Mode extension : CM (complete main)
Format settings, Endianness : Big
Codec ID : A_AC3
Duration : 1 h 39 min
Bit rate mode : Constant
Bit rate : 384 kb/s
Channel(s) : 6 channels
Channel positions : Front: L C R, Side: L R, LFE
Sampling rate : 48.0 kHz
Frame rate : 31.250 FPS (1536 spf)
Compression mode : Lossy
Stream size : 273 MiB (7%)
Title : AVO (BadBajo)
Language : Russian
Default : Yes
Forced : No

Audio #2
ID : 3
Format : AC-3
Format/Info : Audio Coding 3
Mode extension : CM (complete main)
Format settings, Endianness : Big
Codec ID : A_AC3
Duration : 1 h 39 min
Bit rate mode : Constant
Bit rate : 384 kb/s
Channel(s) : 6 channels
Channel positions : Front: L C R, Side: L R, LFE
Sampling rate : 48.0 kHz
Frame rate : 31.250 FPS (1536 spf)
Compression mode : Lossy
Stream size : 273 MiB (7%)
Language : English
Default : No
Forced : No

Text
ID : 4
Format : UTF-8
Codec ID : S_TEXT/UTF8
Codec ID/Info : UTF-8 Plain Text
Language : English
Default : No
Forced : No

Menu
00:00:00.000 : en:1
00:07:05.675 : en:2
00:15:05.696 : en:3
00:20:00.657 : en:4
00:25:03.709 : en:5
00:32:58.642 : en:6
00:38:19.587 : en:7
00:43:26.976 : en:8
00:48:45.836 : en:9
00:55:21.189 : en:10
01:00:16.192 : en:11
01:05:55.405 : en:12
01:10:35.017 : en:13
01:15:53.585 : en:14
01:21:27.126 : en:15
01:27:33.492 : en:16
01:31:46.578 : en:17




Релиз от:

Автор релиза: piratbit.pw



Скачать Час волка через торрент https://d.radikal.ru/d21/1909/3c/65ae59375a4d.jpg Скачать фильм Час волка через торрент бесплантно в хорошем качестве Описание: После трагических событий, связанных с последней книгой, Джун Ли - известная писательница и лидер антиэлитарного движения США ... 10 10 2
Info! Золотая раздача, скачанное не засчитывается.
Торрент: Зарегистрирован [2019-09-25 00:20] · скачан: 26 раз
Статус: √ проверено
Размер: 3.74 GB
Как cкачать? Как скачать Час волка через торрент | UTorrent

% Раздел Тема Автор DL S | L
Фильмы с авторской озвучкой [ 1.39 GB ] Час волка / The Wolf Hour [2019 WEB-DLRip] AVO [Важенин] - ExKinoRay Enigma2010 Скачать
3 | 0

28-11-2019 20:33  

Отключить всю рекламу на сайте

25-09-2019 00:54 Час волка Скачать торрент  

Топик был перенесен из форума Фильмы (WEB-DL 720p, 1080p) в форум Фильмы с авторской озвучкой


bober100piratbit.pw



    Дорогой пользователь! Огромная просьба, поблагодарите релизера, оцените раздачу и оставьте свои комментарий, если Вы скачали Час волка через торрент бесплатно! Внесите свою лепту в развитие PiratBit!
    Комментировать посты могут только пользователи прошедшие не сложную регистрацию
    Показать сообщения:    

    Час волка через торрент
    Скачать бесплатно Час волка
    Час волка скачать торрент
    Час волка смотреть онлайн
    Cкачать фильм Час волка бесплатно
    Час волка скачать торрент в хорошем качестве
    Час волка смотреть онлайн бесплатно в хорошем качестве


    Вы не можете начинать темы
    Вы не можете отвечать на сообщения
    Вы не можете редактировать свои сообщения
    Вы не можете удалять свои сообщения
    Вы не можете голосовать в опросах
    Вы не можете прикреплять файлы к сообщениям
    Вы можете скачивать файлы