новый адрес
Мега распродажа FORZA HORIZON 4 ULTIMATE+ВСЕ DLC+ОНЛАЙН всего за 499р. 349 руб. (супер цена). Внимание количество ограничено!!!

iTunes

1+1

iTunes

мы

iTunes

1

iTunes

Чернобыль

iTunes

Ральф против интернета

Лицензия

ПШазам

Лицензия

Оно 2

Лицензия

30
pack

ВАЖНО

!!Акция!!

Alien_RageХит недели

RePack

Resident Evil 21

ИГРА 18+

pack

RePack

jed

!!Акция!!

Alien_Rage

RePack

fifa19

RePack

Assassins Creed: Odyssey

RePack

NEED FOR SPEED™ PAYBACK

3 сезон

9 сезон

Бесстыжие 9 сезон

Все сериалы

все сериалы на PB.wtf

RePack

FAR CRY 5
Ребята, катастрофически не хватает 1900р. для оплаты серверов за Октябрь (всвязи с блокировками трафик упал в 3 раза), 1-2р., выручайте.
  

Американская история ужасов / American Horror Story / Сезон: 9 / Серии: 1-9 из 9 (Мэри Вигмор, Лони Перистер, Джон Дж. Грэй) [2019, ужасы, триллер, драма, WEB-DLRip] MVO [Amedia] piratbit.pw

Американская история ужасов через торрент piratbit.pw

Размер: 5.25 GB | Добавлен: 4 д. назад | Торрент скачан:16 раз
Скачать  

22-09-2019 10:34 Американская история ужасов Скачать торрент  

Американская история ужасов / American Horror Story Год выпуска: 2019
Название сезона: 1984
Страна: США
Жанр: ужасы, триллер, драма
Продолжительность: 00:50:00
Перевод: Профессиональный (многоголосый закадровый) | Amedia
Субтитры: Русские (Amedia), Английские (SDH)

Режиссёр: Мэри Вигмор, Лони Перистер, Джон Дж. Грэй, Дженнифер Чэмберс Линч

В ролях: Эмма Робертс, Билли Лурд, Мэттью Моррисон, ДеРон Хортон, Коди Ферн, Анджелика Росс, Гас Кенуорти, Лесли Гроссман, Джон Кэрролл Линч, Зак Вилла (Ричард Рамирес)

Описание: Девятый сезон мистического сериала-антологии получил подзаголовок «1984» и вдохновлен классическими слэшерами («Хеллоуин», «Пятница 13»). События развернутся в летнем лагере под названием «Рэдвуд», где промышляет маньяк в маске. На этот раз основной актерский состав претерпел некоторые изменения: в новом сезоне мы не увидим Эвана Питерса, а любимица публики Сара Полсон появится лишь в небольшой роли.



Качество: WEB-DLRip
Формат: AVI

Видео: 720x400 (16:9), 23.976 fps, XviD, 1600 Kbps
Аудио 1: AC3, 48.0 KHz, 2 ch, 192 kbps [Rus]
Аудио 2: AC3, 48.0 KHz, 2 ch, 192 kbps [Eng]


Реклама: Отсутствуют

Работа со звуком, субтитрами: itunestv@eniahd
01. Лагерь "Рэдвуд" / Camp Redwood
General
Complete name : Downloads\American.Horror.Story.S09.Amedia\American.Horror.Story.1984.S09E01.WEB-DLRip.Rus.Eng.RGzsRutracker.avi
Format : AVI
Format/Info : Audio Video Interleave
File size : 689 MiB
Duration : 48mn 10s
Overall bit rate : 1 998 Kbps
Writing application : VirtualDubMod 1.5.10.2 (build 2540/release)
Video #0
ID : 0
Format : MPEG-4 Visual
Format profile : Advanced Simple@L5
Format settings, BVOP : 1
Format settings, QPel : No
Format settings, GMC : No warppoints
Format settings, Matrix : Default (MPEG)
Codec ID : XVID
Codec ID/Hint : XviD
Duration : 48mn 10s
Bit rate : 1 600 Kbps
Width : 720 pixels
Height : 400 pixels
Display aspect ratio : 16:9
Frame rate : 23.976 fps
Color space : YUV
Chroma subsampling : 4:2:0
Bit depth : 8 bits
Scan type : Progressive
Compression mode : Lossy
Bits/(Pixel*Frame) : 0.232
Stream size : 551 MiB (80%)
Writing library : XviD 67
Audio #1
ID : 1
Format : AC-3
Format/Info : Audio Coding 3
Mode extension : CM (complete main)
Format settings, Endianness : Big
Codec ID : 2000
Duration : 48mn 10s
Bit rate mode : Constant
Bit rate : 192 Kbps
Channel(s) : 2 channels
Channel positions : Front: L R
Sampling rate : 48.0 KHz
Bit depth : 16 bits
Compression mode : Lossy
Stream size : 66.2 MiB (10%)
Alignment : Split accross interleaves
Interleave, duration : 42 ms (1.00 video frame)
Interleave, preload duration : 500 ms
Audio #2
ID : 2
Format : AC-3
Format/Info : Audio Coding 3
Mode extension : CM (complete main)
Format settings, Endianness : Big
Codec ID : 2000
Duration : 48mn 10s
Bit rate mode : Constant
Bit rate : 192 Kbps
Channel(s) : 2 channels
Channel positions : Front: L R
Sampling rate : 48.0 KHz
Bit depth : 16 bits
Compression mode : Lossy
Stream size : 66.2 MiB (10%)
Alignment : Split accross interleaves
Interleave, duration : 42 ms (1.00 video frame)
Interleave, preload duration : 500 ms
скриншот  скриншот  скриншот  скриншот  скриншот  
(1) остановить скачивание,
(2) удалить старый торрент у себя из клиента (старые серии удалять не надо),
(3) скачать новый торрент и запустить его у себя в клиенте вместо старого, при этом указать клиенту путь в старую папку куда и должно происходить скачивание новых серий.
Ваш клиент при этом должен произвести хеширование (проверку) старой папки (если не производит сам - помогите ему сделать это), и будет докачивать только те серии которых у вас ещё нет. Старые серии при этом не удаляются, а продолжают раздаваться!
Eсли вы уже удалили старые серии, то предотвратить повторную закачку старых серий можно, отжав галочку в соответсвующих местах при запуске нового торрента. По возможности, желательно не удалять старые серии как можно дольше чтобы релизёр не столько продолжал раздавать старые серии, а смог сконцентрироваться на новых
.
piratbit.pw



Скачать Американская история ужасов через торрент https://i87.fastpic.ru/big/2019/0922/6c/8de6d4bab4177f5cd39a7ecc958ec16c.jpg Скачать фильм Американская история ужасов через торрент бесплантно в хорошем качестве Описание: Девятый сезон мистического сериала-антологии получил подзаголовок «1984» и вдохновлен классическими слэшерами («Хеллоуин», ... 10 10 4
Торрент: Зарегистрирован [2019-11-16 06:11] · скачан: 16 раз
Статус: √ проверено
Размер: 5.25 GB
Как cкачать? Как скачать Американская история ужасов через торрент | qTorrent

% Раздел Тема Автор DL S | L
Американская история ужасов [ 22.13 GB ] Американская история ужасов / American Horror Story / Сезон: 9 / Серии: 1-9 из 9 [2019 WEB-DL 1080p] MVO [Jaskier] bober100 Скачать
2 | 0
Американская история ужасов [ 12.09 GB ] Американская история ужасов / American Horror Story / Сезон: 9 / Серии: 1-9 из 9 [2019 WEB-DL 720p] [MVO] killermax2013 Скачать
1 | 2
Американская история ужасов [ 23.48 GB ] Американская история ужасов / American Horror Story / Сезон: 9 / Серия: 1-9 из 9 [2019 WEB-DL 1080p] MVO [LostFilm] bober100 Скачать
2 | 0
Американская история ужасов [ 13.12 GB ] Американская история ужасов / American Horror Story / Сезон: 9 / Серии: 1-9 из 9 [2019 WEB-DL 720p] MVO [NewStudio] bober100 Скачать
1 | 0
Американская история ужасов [ 12.04 GB ] Американская история ужасов / American Horror Story / Сезон: 9 / Серии: 1-5 из 10 [2019 WEB-DL 1080p] MVO [AMS] bober100 Скачать
2 | 0
Американская история ужасов [ 22.48 GB ] Американская история ужасов / American Horror Story / Сезон: 9 / Серии: 1-9 из 9 [2019 WEB-DL 1080p] [MVO] killermax2013 Скачать
1 | 0
Американская история ужасов [ 12.33 GB ] Американская история ужасов / American Horror Story / Сезон: 9 / Серии: 1-9 из 9 [2019 WEB-DL 720p] MVO [LostFilm] bober100 Скачать
2 | 2


>> Регистрируемся здесь <<






Отзывы и комментарии о схеме читаем и пишем здесь: ---> Отзывы и комментарии о схеме

Новые благодарочки в телеграм довольных пользователей:
скриншот   скриншот   скриншот   скриншот   скриншот
    Дорогой пользователь! Огромная просьба, поблагодарите релизера, оцените раздачу и оставьте свои комментарий, если Вы скачали Американская история ужасов через торрент бесплатно! Внесите свою лепту в развитие PiratBit!
    Комментировать посты могут только пользователи прошедшие не сложную регистрацию
    Показать сообщения:    

    Американская история ужасов через торрент
    Скачать бесплатно Американская история ужасов
    Американская история ужасов скачать торрент
    Американская история ужасов смотреть онлайн
    Cкачать фильм Американская история ужасов бесплатно
    Американская история ужасов скачать торрент в хорошем качестве
    Американская история ужасов смотреть онлайн бесплатно в хорошем качестве


    Вы не можете начинать темы
    Вы не можете отвечать на сообщения
    Вы не можете редактировать свои сообщения
    Вы не можете удалять свои сообщения
    Вы не можете голосовать в опросах
    Вы не можете прикреплять файлы к сообщениям
    Вы можете скачивать файлы