Ссылка на приватное зеркало нашего сайта всего за 1$. Внимание количество ограничено!!!

2 сезон

iTunes

iTunes

1

iTunes

iTunes

iTunes

WEBRip

iTunes

30
pack

Вам бонус

ВАЖНО

!!Акция!!

Alien_RageХит недели

RePack

Horizon Zero Dawn

ИГРА 18+

pack

RePack

jed

!!Акция!!

Alien_Rage

RePack

fifa19

RePack

Assassins Creed: Odyssey

RePack

NEED FOR SPEED™ PAYBACK

4 сезон

9 сезон

Бесстыжие 9 сезон

Все сериалы

все сериалы на PB.wtf

RePack

FAR CRY 5
  

Гадкий я 2 / Despicable Me 2 (Пьер Коффан, Крис Рено) [2013, мультфильм, фантастика, комедия, приключения, семейный, UHD BDRemux 2160p] DVO+2xAVO+DUB [ЛицензияBD EUR] piratbit.pw

Гадкий я 2 через торрент piratbit.pw

Размер: 33.7 GB | Добавлен: 1 год назад | Торрент скачан:6 раз
Скачать  

21-09-2019 18:52 Гадкий я 2 Скачать торрент  

Гадкий я 2 / Despicable Me 2
Год выпуска: 2013
Страна: США
Жанр: мультфильм, фантастика, комедия, приключения, семейный
Продолжительность: 01:37:58
Перевод: Дублированный | Лицензия BD EUR, профессиональный двухголосый, авторский
Субтитры: русские (forced, full), английские

Режиссер: Пьер Коффан, Крис Рено

rating

В ролях: Стив Карелл, Кристен Уиг, Бенджамин Брэтт, Миранда Косгров, Расселл Брэнд, Кен Жонг, Стив Куган, Элси Фишер, Дэна Гайер, Мойзес Ариас

Описание: В то время как Грю, бывший суперзлодей, приспосабливается к семейной жизни и пытается честным трудом зарабатывать в сфере бизнеса, тайные лаборатории Арктики оказываются украденными. Анти-Злодейская лига решает, что она нуждается в помощи Грю и его новобранцев в расследовании.

Качество: UHD BDRemux 2160p
Формат: MKV

Видео: MPEG-H HEVC Video / 30707 kbps / 3840x2160 / 23.976 fps / 16:9 / Main 10 @ Level 5.1 @ High / 4:2:0 / 10 bits / HDR10 / BT.2020 /
Аудио 1: Russian DTS / 5.1 / 48 kHz / 768 kbps / 24 bits |Dub, Blu-Ray|
Аудио 2: Russian DTS-HD Master Audio / 5.1 / 48 kHz / 3792 kbps / 24-bit (DTS Core: 5.1 / 48 kHz / 1509 kbps / 24-bit) |DVO, Кубик в кубе|
Аудио 3: Russian DTS-HD Master Audio / 5.1 / 48 kHz / 3757 kbps / 24-bit (DTS Core: 5.1 / 48 kHz / 1509 kbps / 24-bit) |Ю. Сербин|
Аудио 4: Russian DTS-HD Master Audio / 5.1 / 48 kHz / 3775 kbps / 24-bit (DTS Core: 5.1 / 48 kHz / 1509 kbps / 24-bit) |Ю. Живов|
Аудио 5: English DTS:X/DTS-HD Master Audio / 7.1-X / 48 kHz / 6239 kbps / 24-bit (DTS Core: 5.1 / 48 kHz / 1509 kbps / 24-bit) |original|
Аудио 6: English AC3 / 2.0 / 48 kHz / 192 kbps / 16 bits |Commentary with Director Pierre Coffin and Director Chris Renaud|
скриншот  скриншот  скриншот  

скриншот  скриншот  скриншот  

Общее
Уникальный идентификатор : 100901310495155414154609653975247367241 (0x4BE8E2B229C1E54953D08AE0C26E2C49)
Полное имя : H:\UHD\Гадкий я 2.2013.UHD.Blu-Ray.Remux.2160p.mkv
Формат : Matroska
Версия формата : Version 4
Размер файла : 33,7 Гбайт
Продолжительность : 1 ч. 37 м.
Режим общего битрейта : Переменный
Общий поток : 49,2 Мбит/сек
Дата кодирования : UTC 2019-09-14 11:19:52
Программа кодирования : mkvmerge v37.0.0 ('Leave It') 64-bit
Библиотека кодирования : libebml v1.3.9 + libmatroska v1.5.2
Attachments : poster.jpg

Видео
Идентификатор : 1
Формат : HEVC
Формат/Информация : High Efficiency Video Coding
Профиль формата : Main 10@L5.1@High
HDR_Format/String : SMPTE ST 2086, HDR10 compatible
Идентификатор кодека : V_MPEGH/ISO/HEVC
Продолжительность : 1 ч. 37 м.
Битрейт : 30,7 Мбит/сек
Ширина : 3840 пикселей
Высота : 2160 пикселей
Соотношение сторон : 16:9
Режим частоты кадров : Постоянный
Частота кадров : 23,976 (24000/1001) кадра/сек
Цветовое пространство : YUV
Субдискретизация насыщенности : 4:2:0 (Type 2)
Битовая глубина : 10 бит
Бит/(Пиксели*Кадры) : 0.154
Размер потока : 21,0 Гбайт (62%)
Default : Да
Forced : Нет
Цветовой диапазон : Limited
Основные цвета : BT.2020
Характеристики трансфера : PQ
Коэффициенты матрицы : BT.2020 non-constant
MasteringDisplay_ColorPrimaries : Display P3
MasteringDisplay_Luminance : min: 0.0050 cd/m2, max: 4000 cd/m2
MaxCLL : 994 cd/m2
MaxFALL : 553 cd/m2

Аудио #1
Идентификатор : 2
Формат : DTS
Формат/Информация : Digital Theater Systems
Идентификатор кодека : A_DTS
Продолжительность : 1 ч. 37 м.
Вид битрейта : Постоянный
Битрейт : 768 Кбит/сек
Каналы : 6 каналов
ChannelLayout : C L R Ls Rs LFE
Частота : 48,0 КГц
Частота кадров : 93,750 кадра/сек (512 SPF)
Битовая глубина : 24 бит
Метод сжатия : С потерями
Размер потока : 538 Мбайт (2%)
Заголовок : Dub, Blu-Ray
Язык : Russian
Default : Да
Forced : Нет

Аудио #2
Идентификатор : 3
Формат : DTS XLL
Формат/Информация : Digital Theater Systems
Коммерческое название : DTS-HD Master Audio
Идентификатор кодека : A_DTS
Продолжительность : 1 ч. 37 м.
Вид битрейта : Переменный
Битрейт : 3792 Кбит/сек
Каналы : 6 каналов
ChannelLayout : C L R Ls Rs LFE
Частота : 48,0 КГц
Частота кадров : 93,750 кадра/сек (512 SPF)
Битовая глубина : 24 бит
Метод сжатия : Без потерь
Размер потока : 2,60 Гбайт (8%)
Заголовок : DVO, Кубик в кубе
Язык : Russian
Default : Нет
Forced : Нет

Аудио #3
Идентификатор : 4
Формат : DTS XLL
Формат/Информация : Digital Theater Systems
Коммерческое название : DTS-HD Master Audio
Идентификатор кодека : A_DTS
Продолжительность : 1 ч. 37 м.
Вид битрейта : Переменный
Битрейт : 3757 Кбит/сек
Каналы : 6 каналов
ChannelLayout : C L R Ls Rs LFE
Частота : 48,0 КГц
Частота кадров : 93,750 кадра/сек (512 SPF)
Битовая глубина : 24 бит
Метод сжатия : Без потерь
Размер потока : 2,57 Гбайт (8%)
Заголовок : Ю. Сербин
Язык : Russian
Default : Нет
Forced : Нет

Аудио #4
Идентификатор : 5
Формат : DTS XLL
Формат/Информация : Digital Theater Systems
Коммерческое название : DTS-HD Master Audio
Идентификатор кодека : A_DTS
Продолжительность : 1 ч. 37 м.
Вид битрейта : Переменный
Битрейт : 3775 Кбит/сек
Каналы : 6 каналов
ChannelLayout : C L R Ls Rs LFE
Частота : 48,0 КГц
Частота кадров : 93,750 кадра/сек (512 SPF)
Битовая глубина : 24 бит
Метод сжатия : Без потерь
Размер потока : 2,58 Гбайт (8%)
Заголовок : Ю. Живов
Язык : Russian
Default : Нет
Forced : Нет

Аудио #5
Идентификатор : 6
Формат : DTS XLL X
Формат/Информация : Digital Theater Systems
Коммерческое название : DTS-HD Master Audio
Идентификатор кодека : A_DTS
Продолжительность : 1 ч. 37 м.
Вид битрейта : Переменный
Битрейт : 6239 Кбит/сек
Каналы : 8 каналов
Channel(s)_Original : Object Based
ChannelLayout_Original : Object Based
Частота : 48,0 КГц
Частота кадров : 93,750 кадра/сек (512 SPF)
Битовая глубина : 24 бит
Размер потока : 4,27 Гбайт (13%)
Язык : English
Default : Нет
Forced : Нет

Аудио #6
Идентификатор : 7
Формат : AC-3
Формат/Информация : Audio Coding 3
Коммерческое название : Dolby Digital
Идентификатор кодека : A_AC3
Продолжительность : 1 ч. 37 м.
Вид битрейта : Постоянный
Битрейт : 192 Кбит/сек
Каналы : 2 канала
ChannelLayout : L R
Частота : 48,0 КГц
Частота кадров : 31,250 кадров/сек (1536 SPF)
Метод сжатия : С потерями
Размер потока : 135 Мбайт (0%)
Заголовок : Commentary with Director Pierre Coffin and Director Chris Renaud
Язык : English
ServiceKind/String : Complete Main
Default : Нет
Forced : Нет

Текст #1
Идентификатор : 8
Формат : UTF-8
Идентификатор кодека : S_TEXT/UTF8
Идентификатор кодека/Информация : UTF-8 Plain Text
Продолжительность : 1 ч. 8 м.
Битрейт : 0 бит/сек
ElementCount : 10
Размер потока : 262 байт (0%)
Заголовок : forced
Язык : Russian
Default : Да
Forced : Нет

Текст #2
Идентификатор : 9
Формат : UTF-8
Идентификатор кодека : S_TEXT/UTF8
Идентификатор кодека/Информация : UTF-8 Plain Text
Продолжительность : 1 ч. 29 м.
Битрейт : 64 бит/сек
ElementCount : 917
Размер потока : 42,1 Кбайт (0%)
Заголовок : full
Язык : Russian
Default : Нет
Forced : Нет

Текст #3
Идентификатор : 10
Формат : UTF-8
Идентификатор кодека : S_TEXT/UTF8
Идентификатор кодека/Информация : UTF-8 Plain Text
Продолжительность : 1 ч. 33 м.
Битрейт : 40 бит/сек
ElementCount : 1082
Размер потока : 27,7 Кбайт (0%)
Язык : English
Default : Нет
Forced : Нет

Меню
00:00:00.000 : :Chapter 01
00:03:22.994 : :Chapter 02
00:08:04.734 : :Chapter 03
00:15:50.866 : :Chapter 04
00:18:28.232 : :Chapter 05
00:24:36.892 : :Chapter 06
00:30:50.723 : :Chapter 07
00:34:40.703 : :Chapter 08
00:40:48.279 : :Chapter 09
00:46:26.200 : :Chapter 10
00:51:23.121 : :Chapter 11
00:56:27.425 : :Chapter 12
01:00:00.471 : :Chapter 13
01:03:27.053 : :Chapter 14
01:08:44.078 : :Chapter 15
01:14:01.979 : :Chapter 16
01:18:08.058 : :Chapter 17
01:22:33.907 : :Chapter 18
01:27:09.098 : :Chapter 19
01:30:33.719 : :Chapter 20

piratbit.pw



Скачать Гадкий я 2 через торрент http://i066.radikal.ru/1712/fb/853ce04d0c44.jpg Скачать фильм Гадкий я 2 через торрент бесплантно в хорошем качестве Описание: В то время как Грю, бывший суперзлодей, приспосабливается к семейной жизни и пытается честным трудом зарабатывать в сфере ... 10 10 2
Торрент: Зарегистрирован [2019-09-21 18:52] · скачан: 6 раз
Статус: √ проверено
Размер: 33.7 GB
Как cкачать? Как скачать Гадкий я 2 через торрент | qTorrent

% Раздел Тема Автор DL S | L
Зарубежные Мультфильмы (BDRip 1080p, 720p, Blu-ray, BD-Remux) [ 3.78 GB ] Гадкий Я 2 / Despicable Me 2 [2013 мультфильм BDRip 1080p HEVC ] Мичман37 Скачать
2 | 0
Ultra HD (UHD: 2K, 4K, 8K) [ 26.43 GB ] Гадкий я 2 / Despicable Me 2 [2013 мультфильм UHD BDRemux 2160p] 2xMVO +DUB [BD EUR] bober100 Скачать
1 | 0
Зарубежные Мультфильмы (BDRip 1080p, 720p, Blu-ray, BD-Remux) [ 4.37 GB ] Гадкий я 2 / Despicable Me 2 [2013 мультфильм BDRip 720p]Dub[лицензия] Ворон Скачать
1 | 0
Фильмы с украинским озвучиванием [ 1.32 GB ] Гадкий я 2 / Нікчемний я 2 / Despicable Me 2 [2013 мультфильм BDRip] [Ukr DUB] killermax2013 Скачать
1 | 0
Иностранные мультфильмы [ 1.45 GB ] Гадкий я 2 / Despicable Me 2 [2013 мультфильм BDRip () [] 19Diman Скачать
1 | 1
Игры android [ 733 MB ] [Android 2.3 Notturno Скачать
1 | 0
Фильмы с авторской озвучкой [ 2.19 GB ] Гадкий я 2 / Despicable Me 2 [2013 мультфильм BDRip Авторский одноголосый ] coc900 Скачать
1 | 0

28-11-2019 20:33  

Отключить всю рекламу на сайте

    Дорогой пользователь! Огромная просьба, поблагодарите релизера, оцените раздачу и оставьте свои комментарий, если Вы скачали Гадкий я 2 через торрент бесплатно! Внесите свою лепту в развитие PiratBit!
    Комментировать посты могут только пользователи прошедшие не сложную регистрацию
    Показать сообщения:    

    Гадкий я 2 через торрент
    Скачать бесплатно Гадкий я 2
    Гадкий я 2 скачать торрент
    Гадкий я 2 смотреть онлайн
    Cкачать фильм Гадкий я 2 бесплатно
    Гадкий я 2 скачать торрент в хорошем качестве
    Гадкий я 2 смотреть онлайн бесплатно в хорошем качестве


    Вы не можете начинать темы
    Вы не можете отвечать на сообщения
    Вы не можете редактировать свои сообщения
    Вы не можете удалять свои сообщения
    Вы не можете голосовать в опросах
    Вы не можете прикреплять файлы к сообщениям
    Вы можете скачивать файлы