1 сезон

1 сезон

iTunes

1

КиноПоиск HD

Кинопоиск HD

iTunes

13

1 сезон

RePack

30

Новинка

ВАЖНО

ИГРА 18+

pack

RePack

MK11
pack

Легкие деньги

RePack

jed

RePack

fifa19

RePack

RDR2

RePack

NEED FOR SPEED™ PAYBACK

4 сезон

9 сезон

Бесстыжие 9 сезон

Все сериалы

все сериалы на PB.wtf

RePack

FAR CRY 5
  
Magnet ссылка

Тёмная сторона / Bloodline (Генри Джейкобсон) [2018, Ужасы, WEB-DLRip-AVC] AVO [А.Важенин [BadBajo] - ExKinoRay piratbit.pw

Тёмная сторона через торрент piratbit.pw

Раздают: 3 [ 0 KB/s ]
Размер: 1.64 GB | Добавлен: 1 год 7 мес. назад | Торрент скачан:107 раз
Скачать  

21-09-2019 02:08 Тёмная сторона Скачать торрент  

Название: Тёмная сторона
Оригинальное название: Bloodline
Год выхода: 2018
Жанр: Ужасы, триллер
Режиссер: Генри Джейкобсон
В ролях: Шонн Уильям Скотт, Мариэла Гаррига, Дейл Дикки, Кевин Кэрролл, Кристи Херринг, Рэймонд Александр Чэм мл., Лейт М. Бурк, Ник Борэйни, Дасти Сорг, Шон Х. Скалли

Описание: В жизни Эвана все прекрасно и стабильно — любящая жена, маленький ребенок и интересная работа школьного психолога. Но никто из окружающих не догадывается, что у жизни Эвана есть и другая, тёмная сторона, на которую лучше не заходить никому.

rating

Страна: США
Студия: Divide/Conquer, Mind Hive Films, Blumhouse Productions
Продолжительность: 01:36:48
Перевод: Авторский - А.Важенин [BadBajo]

БЕЗ КАКОЙ-ЛИБО РЕКЛАМЫ!

Формат: MKV
Качество: WEB-DLRip-AVC
Видео: MPEG-4 AVC, 1024x510 (2.40:1), 23.976 fps, 1654 Kbps, 0.158 bit/pixel
Аудио #01: 48 kHz, AC3, 5.1, 384 Kbps | RUS |
Аудио #02: 48 kHz, AC3, 5.1, 384 Kbps | Оригинал | ENG |
Субтитры: Английские
General
Unique ID : 189845109292389318856831209584403288138 (0x8ED2D68C4A7315458358B7565262104A)
Complete name : F:\Bloodline.2018.AVO.AVC.ExKinoRay.mkv
Format : Matroska
Format version : Version 2
File size : 1.64 GiB
Duration : 1 h 36 min
Overall bit rate : 2 423 kb/s
Movie name : Bloodline 2018 from ExKinoRay
Encoded date : UTC 2019-09-21 00:55:58
Writing application : mkvmerge v5.6.0 ('Kenya Kane') built on May 27 2012 16:44:04
Writing library : libebml v1.2.3 + libmatroska v1.3.0

Video
ID : 1
Format : AVC
Format/Info : Advanced Video Codec
Format profile : High@L4.1
Format settings, CABAC : Yes
Format settings, ReFrames : 11 frames
Codec ID : V_MPEG4/ISO/AVC
Duration : 1 h 36 min
Bit rate : 1 654 kb/s
Width : 1 024 pixels
Height : 510 pixels
Display aspect ratio : 2.008
Frame rate mode : Constant
Frame rate : 23.976 (23976/1000) FPS
Color space : YUV
Chroma subsampling : 4:2:0
Bit depth : 8 bits
Scan type : Progressive
Bits/(Pixel*Frame) : 0.132
Stream size : 1.09 GiB (66%)
Title : Enigma
Writing library : x264 core 152 r2851 ba24899
Encoding settings : cabac=1 / ref=11 / deblock=1:-2:-2 / analyse=0x3:0x113 / me=umh / subme=10 / psy=1 / psy_rd=1.05:0.10 / mixed_ref=1 / me_range=32 / chroma_me=1 / trellis=2 / 8x8dct=1 / cqm=0 / deadzone=21,11 / fast_pskip=0 / chroma_qp_offset=-3 / threads=12 / lookahead_threads=2 / sliced_threads=0 / nr=0 / decimate=0 / interlaced=0 / bluray_compat=0 / constrained_intra=0 / bframes=9 / b_pyramid=2 / b_adapt=2 / b_bias=0 / direct=3 / weightb=1 / open_gop=0 / weightp=2 / keyint=240 / keyint_min=23 / scenecut=40 / intra_refresh=0 / rc=2pass / mbtree=0 / bitrate=1654 / ratetol=1.0 / qcomp=0.60 / qpmin=0 / qpmax=51 / qpstep=4 / cplxblur=20.0 / qblur=0.5 / ip_ratio=1.40 / pb_ratio=1.30 / aq=2:0.80
Language : English
Default : Yes
Forced : No
Color range : Limited
Color primaries : BT.709
Transfer characteristics : BT.709
Matrix coefficients : BT.709

Audio #1
ID : 2
Format : AC-3
Format/Info : Audio Coding 3
Mode extension : CM (complete main)
Format settings, Endianness : Big
Codec ID : A_AC3
Duration : 1 h 36 min
Bit rate mode : Constant
Bit rate : 384 kb/s
Channel(s) : 6 channels
Channel positions : Front: L C R, Side: L R, LFE
Sampling rate : 48.0 kHz
Frame rate : 31.250 FPS (1536 spf)
Compression mode : Lossy
Stream size : 266 MiB (16%)
Title : AVO (BadBajo)
Language : Russian
Default : No
Forced : No

Audio #2
ID : 3
Format : AC-3
Format/Info : Audio Coding 3
Mode extension : CM (complete main)
Format settings, Endianness : Big
Codec ID : A_AC3
Duration : 1 h 36 min
Bit rate mode : Constant
Bit rate : 384 kb/s
Channel(s) : 6 channels
Channel positions : Front: L C R, Side: L R, LFE
Sampling rate : 48.0 kHz
Frame rate : 31.250 FPS (1536 spf)
Compression mode : Lossy
Stream size : 266 MiB (16%)
Language : English
Default : No
Forced : No

Text
ID : 4
Format : UTF-8
Codec ID : S_TEXT/UTF8
Codec ID/Info : UTF-8 Plain Text
Language : English
Default : No
Forced : No

Menu
00:00:00.000 : en:Chapter 1
00:07:56.184 : en:Chapter 2
00:17:07.068 : en:Chapter 3
00:25:08.840 : en:Chapter 4
00:34:14.677 : en:Chapter 5
00:43:37.906 : en:Chapter 6
00:51:33.214 : en:Chapter 7
01:01:12.126 : en:Chapter 8
01:13:35.118 : en:Chapter 9
01:23:42.308 : en:Chapter 10
01:32:06.311 : en:Chapter 11



Релиз от:

Автор релиза: piratbit.pw



Скачать Тёмная сторона через торрент https://c.radikal.ru/c26/1909/c8/6b2be86aa601.jpg Скачать фильм Тёмная сторона через торрент бесплантно в хорошем качестве Описание: В жизни Эвана все прекрасно и стабильно — любящая жена, маленький ребенок и интересная работа школьного психолога. Но никто из ... 10 10 1
Info! Золотая раздача, скачанное не засчитывается.
Торрент: Зарегистрирован [2019-09-21 02:08] · скачан: 107 раз
Статус: √ проверено
Размер: 1.64 GB
Как cкачать? Как скачать Тёмная сторона через торрент | UTorrent

28-11-2019 20:33  

Отключить всю рекламу на сайте

21-09-2019 10:35 Тёмная сторона Скачать торрент  

Стифлер в главной роли ? Смотреть обязательно!piratbit.pw



    Дорогой пользователь! Огромная просьба, поблагодарите релизера, оцените раздачу и оставьте свои комментарий, если Вы скачали Тёмная сторона через торрент бесплатно! Внесите свою лепту в развитие PiratBit!
    Комментировать посты могут только пользователи прошедшие не сложную регистрацию
    Показать сообщения:    

    Тёмная сторона через торрент
    Скачать бесплатно Тёмная сторона
    Тёмная сторона скачать торрент
    Тёмная сторона смотреть онлайн
    Cкачать фильм Тёмная сторона бесплатно
    Тёмная сторона скачать торрент в хорошем качестве
    Тёмная сторона смотреть онлайн бесплатно в хорошем качестве


    Вы не можете начинать темы
    Вы не можете отвечать на сообщения
    Вы не можете редактировать свои сообщения
    Вы не можете удалять свои сообщения
    Вы не можете голосовать в опросах
    Вы не можете прикреплять файлы к сообщениям
    Вы можете скачивать файлы