Ссылка на приватное зеркало нашего сайта всего за 1$. Внимание количество ограничено!!!

2 сезон

iTunes

iTunes

1

iTunes

iTunes

iTunes

WEBRip

iTunes

30
pack

Вам бонус

ВАЖНО

!!Акция!!

Alien_RageХит недели

RePack

Horizon Zero Dawn

ИГРА 18+

pack

RePack

jed

!!Акция!!

Alien_Rage

RePack

fifa19

RePack

Assassins Creed: Odyssey

RePack

NEED FOR SPEED™ PAYBACK

4 сезон

9 сезон

Бесстыжие 9 сезон

Все сериалы

все сериалы на PB.wtf

RePack

FAR CRY 5
  

Бык (Борис Акопов) [2019, драма, WEB-DLRip 720p] [iTunes] - ExKinoRay piratbit.pw

Бык через торрент piratbit.pw

Раздают: 80 [ 45 KB/s ] Качают: 2 [ 0 KB/s ]
Размер: 2.96 GB | Добавлен: 1 год назад | Торрент скачан:639 раз
Скачать  

19-09-2019 11:54 Бык Скачать торрент  

Название: Бык
Год выхода: 2019
Жанр: Драма
Страна: Россия
Перевод: Не требуется
Продолжительность: 01:39:27
Режиссер: Борис Акопов
В ролях: Юрий Борисов, Стася Милославская, Афина Кондрашова, Егор Кенжаметов, Александр Самсонов, Игорь Савочкин, Алексей Филимонов, Сергей Двойников, Александр Левин, Роман Колотухин и др.

Описание: 90-е годы. Экономическая пропасть и криминальные драмы, разворачивающиеся буквально на каждом углу. Молодой лидер преступной группировки Антон Быков по прозвищу «Бык» вынужден зарабатывать любыми способами, чтобы обеспечить свою семью. После районной «стрелки» Антон попадает в отделение милиции, откуда его вызволяет один из московских авторитетов. Взамен он просит героя о маленькой, но опасной услуге.

rating

Качество: WEB-DLRip 720p
Видео: MPEG-4 AVC, 1280x476, 3878 kbps, 23,976 fps
Аудио: 48 kHz, AC3, 5.1, 384 Kbps | RUS |
General
Unique ID : 194239759113431560699621115202023048802 (0x922137834420DBAFB3112B4B8839C662)
Complete name : F:\Byk.2019.720p.ExKinoRay.mkv
Format : Matroska
Format version : Version 2
File size : 2.96 GiB
Duration : 1 h 39 min
Overall bit rate : 4 264 kb/s
Movie name : Бык 2019 from ExKinoRay
Encoded date : UTC 2019-09-19 11:10:42
Writing application : mkvmerge v5.6.0 ('Kenya Kane') built on May 27 2012 16:44:04
Writing library : libebml v1.2.3 + libmatroska v1.3.0

Video
ID : 1
Format : AVC
Format/Info : Advanced Video Codec
Format profile : High@L4.1
Format settings, CABAC : Yes
Format settings, ReFrames : 12 frames
Codec ID : V_MPEG4/ISO/AVC
Duration : 1 h 39 min
Bit rate : 3 878 kb/s
Width : 1 280 pixels
Height : 476 pixels
Display aspect ratio : 2.689
Frame rate mode : Constant
Frame rate : 23.976 (23976/1000) FPS
Color space : YUV
Chroma subsampling : 4:2:0
Bit depth : 8 bits
Scan type : Progressive
Bits/(Pixel*Frame) : 0.265
Stream size : 2.64 GiB (89%)
Title : Enigma
Writing library : x264 core 152 r2851 ba24899
Encoding settings : cabac=1 / ref=12 / deblock=1:-2:-2 / analyse=0x3:0x113 / me=umh / subme=11 / psy=1 / psy_rd=1.05:0.10 / mixed_ref=1 / me_range=32 / chroma_me=1 / trellis=2 / 8x8dct=1 / cqm=0 / deadzone=21,11 / fast_pskip=0 / chroma_qp_offset=-3 / threads=12 / lookahead_threads=2 / sliced_threads=0 / nr=0 / decimate=0 / interlaced=0 / bluray_compat=0 / constrained_intra=0 / bframes=9 / b_pyramid=2 / b_adapt=2 / b_bias=0 / direct=3 / weightb=1 / open_gop=0 / weightp=2 / keyint=240 / keyint_min=23 / scenecut=40 / intra_refresh=0 / rc=2pass / mbtree=0 / bitrate=3878 / ratetol=1.0 / qcomp=0.60 / qpmin=0 / qpmax=51 / qpstep=4 / cplxblur=20.0 / qblur=0.5 / ip_ratio=1.40 / pb_ratio=1.30 / aq=1:1.00
Language : English
Default : Yes
Forced : No
Color range : Limited
Color primaries : BT.709
Transfer characteristics : BT.709
Matrix coefficients : BT.709

Audio
ID : 2
Format : AC-3
Format/Info : Audio Coding 3
Mode extension : CM (complete main)
Format settings, Endianness : Big
Codec ID : A_AC3
Duration : 1 h 39 min
Bit rate mode : Constant
Bit rate : 384 kb/s
Channel(s) : 6 channels
Channel positions : Front: L C R, Side: L R, LFE
Sampling rate : 48.0 kHz
Frame rate : 31.250 FPS (1536 spf)
Compression mode : Lossy
Stream size : 273 MiB (9%)
Language : Russian
Default : Yes
Forced : No

Menu
00:00:00.000 : en:Глава 1
00:07:05.916 : en:Глава 2
00:11:05.332 : en:Глава 3
00:18:20.415 : en:Глава 4
00:26:07.540 : en:Глава 5
00:34:08.456 : en:Глава 6
00:39:49.331 : en:Глава 7
00:46:10.372 : en:Глава 8
00:51:27.413 : en:Глава 9
00:58:04.621 : en:Глава 10
01:08:17.912 : en:Глава 11
01:15:23.287 : en:Глава 12




Релиз от:

Автор релиза: piratbit.pw



Скачать Бык через торрент http://lostpix.com/thumbs/2019-09/18/t5lvq0nf9erew7tafx6a6pkyk.png Скачать фильм Бык через торрент бесплантно в хорошем качестве Описание: 90-е годы. Экономическая пропасть и криминальные драмы, разворачивающиеся буквально на каждом углу. Молодой лидер преступной ... 9.7 10 13
Info! Золотая раздача, скачанное не засчитывается.
Торрент: Зарегистрирован [2019-09-19 11:54] · скачан: 639 раз
Статус: √ проверено
Размер: 2.96 GB
Как cкачать? Как скачать Бык через торрент | qTorrent

% Раздел Тема Автор DL S | L

28-11-2019 20:33  

Отключить всю рекламу на сайте

    Дорогой пользователь! Огромная просьба, поблагодарите релизера, оцените раздачу и оставьте свои комментарий, если Вы скачали Бык через торрент бесплатно! Внесите свою лепту в развитие PiratBit!
    Комментировать посты могут только пользователи прошедшие не сложную регистрацию
    Показать сообщения:    

    Бык через торрент
    Скачать бесплатно Бык
    Бык скачать торрент
    Бык смотреть онлайн
    Cкачать фильм Бык бесплатно
    Бык скачать торрент в хорошем качестве
    Бык смотреть онлайн бесплатно в хорошем качестве


    Вы не можете начинать темы
    Вы не можете отвечать на сообщения
    Вы не можете редактировать свои сообщения
    Вы не можете удалять свои сообщения
    Вы не можете голосовать в опросах
    Вы не можете прикреплять файлы к сообщениям
    Вы можете скачивать файлы