Ссылка на приватное зеркало нашего сайта всего за 1$. Внимание количество ограничено!!!

2 сезон

iTunes

iTunes

1

iTunes

iTunes

iTunes

WEBRip

iTunes

30
pack

Новость дня

ВАЖНО

!!Акция!!

Alien_RageХит недели

RePack

Horizon Zero Dawn

ИГРА 18+

pack

RePack

jed

!!Акция!!

Alien_Rage

RePack

fifa19

RePack

Assassins Creed: Odyssey

RePack

NEED FOR SPEED™ PAYBACK

4 сезон

9 сезон

Бесстыжие 9 сезон

Все сериалы

все сериалы на PB.wtf

RePack

FAR CRY 5
  

Тобол (Игорь Зайцев) [2019, История, драма, BDRip 720p] [Лицензия] - ExKinoRay piratbit.pw

Тобол через торрент piratbit.pw

Раздают: 27 [ 62 KB/s ]
Размер: 4.75 GB | Добавлен: 1 год назад | Торрент скачан:153 раза
Скачать  

18-09-2019 03:44 Тобол Скачать торрент  

Название: Тобол
Год выпуска: 2019
Жанр: История, драма
Режиссер: Игорь Зайцев
В ролях: Дмитрий Назаров, Александр Лазарев мл., Юлия Макарова, Евгений Дятлов, Дмитрий Дюжев, Павел Табаков, Илья Маланин, Еркебулан Даиров, Андрей Бурковский, Агата Муцениеце

Описание: Молодой офицер новой гвардии Петра I Иван Демарин по заданию царя отправляется в глубину Сибири — в пограничный Тобольск. Здесь Иван встречает свою первую любовь и вместе со своим полком оказывается втянутым в заговор местных князей, охотящихся за золотом Яркенда. Его крепость окружена полчищами диких джунгар и помощи ждать неоткуда…

rating

Страна: Россия
Студия: Yellow, Black & White
Продолжительность: 01:48:14
Язык: Русский | Лицензия Blu-Ray GER

Формат: MKV
Качество: BDRip 720p
Источник: |die.schlacht.um.sibirien.2019.german.dl.1080p.bluray.avc-itsmemario|
Видео: MPEG-4 AVC, 1280x536 (2.40:1), 23.976 fps, 4130 Kbps, 0.251 bit/pixel
Аудио 1: 48 kHz, AC3, 5.1, 640 Kbps | RUS |
Аудио 2: 48 kHz, DTS, 5.1, 1509 Kbps | RUS |
General
Unique ID : 216674099193976905830895086310307365428 (0xA301E9E073214C05A5A98685F3078234)
Complete name : F:\Tobol.2019.BDRip.720p.ExKinoRay.mkv
Format : Matroska
Format version : Version 2
File size : 4.75 GiB
Duration : 1 h 48 min
Overall bit rate : 6 279 kb/s
Movie name : Tobol 2019 from ExKinoRay
Encoded date : UTC 2019-09-17 20:06:53
Writing application : mkvmerge v5.6.0 ('Kenya Kane') built on May 27 2012 16:44:04
Writing library : libebml v1.2.3 + libmatroska v1.3.0

Video
ID : 1
Format : AVC
Format/Info : Advanced Video Codec
Format profile : High@L4.1
Format settings, CABAC : Yes
Format settings, ReFrames : 12 frames
Codec ID : V_MPEG4/ISO/AVC
Duration : 1 h 48 min
Bit rate : 4 130 kb/s
Width : 1 280 pixels
Height : 536 pixels
Display aspect ratio : 2.40:1
Frame rate mode : Constant
Frame rate : 23.976 (23976/1000) FPS
Color space : YUV
Chroma subsampling : 4:2:0
Bit depth : 8 bits
Scan type : Progressive
Bits/(Pixel*Frame) : 0.251
Stream size : 3.03 GiB (64%)
Title : Enigma
Writing library : x264 core 152 r2851 ba24899
Encoding settings : cabac=1 / ref=12 / deblock=1:-2:-2 / analyse=0x3:0x113 / me=umh / subme=11 / psy=1 / psy_rd=1.00:0.00 / mixed_ref=1 / me_range=32 / chroma_me=1 / trellis=2 / 8x8dct=1 / cqm=0 / deadzone=21,11 / fast_pskip=0 / chroma_qp_offset=-2 / threads=12 / lookahead_threads=3 / sliced_threads=0 / nr=0 / decimate=0 / interlaced=0 / bluray_compat=0 / constrained_intra=0 / bframes=12 / b_pyramid=2 / b_adapt=2 / b_bias=0 / direct=3 / weightb=1 / open_gop=0 / weightp=2 / keyint=240 / keyint_min=23 / scenecut=40 / intra_refresh=0 / rc=2pass / mbtree=0 / bitrate=4130 / ratetol=1.0 / qcomp=0.60 / qpmin=0 / qpmax=51 / qpstep=4 / cplxblur=20.0 / qblur=0.5 / ip_ratio=1.40 / pb_ratio=1.30 / aq=2:0.80
Language : English
Default : Yes
Forced : No
Color range : Limited
Color primaries : BT.709
Transfer characteristics : BT.709
Matrix coefficients : BT.709

Audio #1
ID : 2
Format : AC-3
Format/Info : Audio Coding 3
Mode extension : CM (complete main)
Format settings, Endianness : Big
Codec ID : A_AC3
Duration : 1 h 48 min
Bit rate mode : Constant
Bit rate : 640 kb/s
Channel(s) : 6 channels
Channel positions : Front: L C R, Side: L R, LFE
Sampling rate : 48.0 kHz
Frame rate : 31.250 FPS (1536 spf)
Compression mode : Lossy
Stream size : 495 MiB (10%)
Title : AC3, Blu-Ray
Language : Russian
Default : Yes
Forced : No

Audio #2
ID : 3
Format : DTS
Format/Info : Digital Theater Systems
Mode : 16
Format settings, Endianness : Big
Codec ID : A_DTS
Duration : 1 h 48 min
Bit rate mode : Constant
Bit rate : 1 509 kb/s
Channel(s) : 6 channels
Channel positions : Front: L C R, Side: L R, LFE
Sampling rate : 48.0 kHz
Frame rate : 93.750 FPS (512 spf)
Bit depth : 24 bits
Compression mode : Lossy
Stream size : 1.14 GiB (24%)
Title : DTS, Blu-Ray
Language : Russian
Default : No
Forced : No

Menu
00:00:00.000 : ru:Chapter 01
00:09:42.624 : ru:Chapter 02
00:18:23.811 : ru:Chapter 03
00:28:32.252 : ru:Chapter 04
00:37:53.480 : ru:Chapter 05
00:47:07.491 : ru:Chapter 06
00:55:04.301 : ru:Chapter 07
01:05:02.315 : ru:Chapter 08
01:14:37.973 : ru:Chapter 09
01:21:39.853 : ru:Chapter 10
01:33:04.662 : ru:Chapter 11
01:42:13.419 : ru:Chapter 12



Релиз от:

Автор релиза: piratbit.pw



Скачать Тобол через торрент https://i106.fastpic.ru/big/2019/0630/74/f9b98ddc99c2a23abcff45a4dd277374.jpeg Скачать фильм Тобол через торрент бесплантно в хорошем качестве Описание: Молодой офицер новой гвардии Петра I Иван Демарин по заданию царя отправляется в глубину Сибири — в пограничный Тобольск. Здесь ... 8.9 10 8
Info! Золотая раздача, скачанное не засчитывается.
Торрент: Зарегистрирован [2019-09-18 03:44] · скачан: 153 раз
Статус: √ проверено
Размер: 4.75 GB
Как cкачать? Как скачать Тобол через торрент | qTorrent

28-11-2019 20:33  

Отключить всю рекламу на сайте

    Дорогой пользователь! Огромная просьба, поблагодарите релизера, оцените раздачу и оставьте свои комментарий, если Вы скачали Тобол через торрент бесплатно! Внесите свою лепту в развитие PiratBit!
    Комментировать посты могут только пользователи прошедшие не сложную регистрацию
    Показать сообщения:    

    Тобол через торрент
    Скачать бесплатно Тобол
    Тобол скачать торрент
    Тобол смотреть онлайн
    Cкачать фильм Тобол бесплатно
    Тобол скачать торрент в хорошем качестве
    Тобол смотреть онлайн бесплатно в хорошем качестве


    Вы не можете начинать темы
    Вы не можете отвечать на сообщения
    Вы не можете редактировать свои сообщения
    Вы не можете удалять свои сообщения
    Вы не можете голосовать в опросах
    Вы не можете прикреплять файлы к сообщениям
    Вы можете скачивать файлы