Ссылка на приватное зеркало нашего сайта всего за 1$. Внимание количество ограничено!!!

2 сезон

iTunes

iTunes

1

iTunes

iTunes

iTunes

WEBRip

iTunes

30
pack

Вам бонус

ВАЖНО

!!Акция!!

Alien_RageХит недели

RePack

Horizon Zero Dawn

ИГРА 18+

pack

RePack

jed

!!Акция!!

Alien_Rage

RePack

fifa19

RePack

Assassins Creed: Odyssey

RePack

NEED FOR SPEED™ PAYBACK

4 сезон

9 сезон

Бесстыжие 9 сезон

Все сериалы

все сериалы на PB.wtf

RePack

FAR CRY 5
  

Меч в камне / The Sword In The Stone (Вольфганг Райтерман) [1963, Фэнтези, приключения, семейный, мультфильм, UHD WEB-DL 2160p] [SDR] DUB+MVO (rus,ukr) +3xAVO+VO piratbit.pw

Меч в камне через торрент piratbit.pw

Размер: 41.97 GB | Добавлен: 1 год назад | Торрент скачан:0 раз
Скачать  

15-09-2019 15:47 Меч в камне Скачать торрент  

Меч в камне / The Sword In The Stone
Год выпуска: 1963
Страна: США
Жанр: Фэнтези, приключения, семейный, мультфильм
Продолжительность: 01:19:44
Перевод: Дублированный, профессиональный многоголосый, авторский, любительский одноголосый
Субтитры: Русские, английские, украинские

Режиссер: Вольфганг Райтерман

rating

В ролях: Себастьян Сабот, Карл Свенсон, Джуниос Мэтьюз, Джинни Тайлер, Марта Вентуорф, Норман Элден, Алан Напье, Ричард Рейтерман, Роберт Рейтерман

Описание: В стародавние времена в центре Лондона появился громадный камень с замурованным в нем старинным мечом. Золотая надпись на мече гласила, что королем Англии станет тот, кто вытащит этот заколдованный меч, доказав тем самым свою особую силу и право на Влacть. Пока это не удавалось никому. А между тем в далекой лесной глуши жил себе 11-летний мальчик Артур, прислуживал в замке и даже не подозревал, что именно ему предначертано в будущем стать великом королем. Но это предвидел живший неподалеку волшебник Мерлин. Он и его ученый филин Архимед стали наставниками парнишки, подвергнув своего юного воспитанника всемозможным испытаниям. Его поочередно превращали в животных трех разных стихий — рыбу, белку и птицу, чтобы мог он познать правду жизни во всех ее проявлениях и понять, что не в мышцах, а в мудрости и знании и есть настоящая сила человека.

Качество: UHD WEB-DL 2160p | SDR
Формат: MKV

Видео: MPEG4 (AVС) / 59800 kbps / 3840x2160 / 23.976 fps / 16:9 / High 10@L5.1 / 10 bits / BT.709
Аудио#1: Russian: 48 kHz/16-bit, E-AC3 Plus, 2.0, 1024 kbps |Полное Дублирование, Невафильм| |Remaster|
Аудио#2: Russian: 48 kHz/16-bit, АС3, 2.0, 320 kbps |Полное Дублирование, Невафильм| |Original|
Аудио#3: Russian: 48 kHz/16-bit, E-AC3 Plus, 5.1, 1024 kbps |Одноголосый закадровый, Алексей Михалев| |Remaster|
Аудио#4: Russian: 48 kHz/16-bit, АС3, 5.1, 448 kbps |Одноголосый закадровый, Алексей Михалев| |Original|
Аудио#5: Russian: 48 kHz/16-bit, E-AC3 Plus, 2.0, 1024 kbps |Одноголосый закадровый, Юрий Живов| |Remaster|
Аудио#6: Russian: 48 kHz/16-bit, АС3, 2.0, 192 kbps |Одноголосый закадровый, Юрий Живов| |Original|
Аудио#7: Russian: 48 kHz/16-bit, E-AC3 Plus, 5.1, 1024 kbps |Многоголосый закадровый, DVD Магия| |Remaster|
Аудио#8: Russian: 48 kHz/16-bit, АС3, 5.1, 384 kbps |Многоголосый закадровый, DVD Магия| |Original|
Аудио#9: Russian: 48 kHz/16-bit, E-AC3 Plus, 5.1, 1024 kbps |Одноголосый закадровый, Вартан Дохалов| |Remaster|
Аудио#10: Russian: 48 kHz/16-bit, АС3, 5.1, 448 kbps |Одноголосый закадровый, Вартан Дохалов| |Original|
Аудио#11: Russian: 48 kHz/16-bit, E-AC3 Plus, 2.0, 1024 kbps |Одноголосый закадровый, Неизвестный| |Remaster|
Аудио#12: Russian: 48 kHz/16-bit, АС3, 2.0, 192 kbps |Одноголосый закадровый, Неизвестный| |Original|
Аудио#13: Ukrainian: 48 kHz/16-bit, E-AC3 Plus, 2.0, 1024 kbps |Многоголосый закадровый, К1| |Remaster|
Аудио#14: Ukrainian: 48 kHz/16-bit, АС3, 2.0, 192 kbps |Многоголосый закадровый, К1| |Original|
Аудио#15: English: 48 kHz/24-bit, DTS-HD MA, 5.1, 3311 kbps
Аудио#16: Russian: 96 kHz/16-bit, DTS, 2.0, 3072 kbps |Полное Дублирование, Невафильм| |Remaster, Отдельно в папке|
скриншот  скриншот  скриншот  

скриншот  скриншот  скриншот  

General
Unique ID : 253255586795996230797455359170683184134 (0xBE8740773C14A1310D2EB57E4FDDA406)
Complete name : E:\Movie\The_Sword_in_the_Stone_1963_UHD4K_SDR_WEB-DL_AMZ_EU_B3stt\The_Sword_in_the_Stone_1963_UHD4K_SDR_WEB-DL_AMZ_EU_B3stt.mkv
Format : Matroska
Format version : Version 4
File size : 40.2 GiB
Duration : 1 h 19 min
Overall bit rate mode : Variable
Overall bit rate : 72.2 Mb/s
Movie name : The Sword in the Stone 1963 UHD 4K SDR AVC WEB-DL AMZ EU
Encoded date : UTC 2019-09-15 08:13:15
Writing application : mkvmerge v37.0.0 ('Leave It') 64-bit
Writing library : libebml v1.3.9 + libmatroska v1.5.2

Video
ID : 1
Format : AVC
Format/Info : Advanced Video Codec
Format profile : High 10@L5.1
Format settings : CABAC / 4 Ref Frames
Format settings, CABAC : Yes
Format settings, Reference fra : 4 frames
Codec ID : V_MPEG4/ISO/AVC
Duration : 1 h 19 min
Bit rate mode : Variable
Bit rate : 60.0 Mb/s
Maximum bit rate : 80.0 Mb/s
Width : 3 840 pixels
Height : 2 160 pixels
Display aspect ratio : 16:9
Frame rate mode : Constant
Frame rate : 23.976 (24000/1001) FPS
Standard : NTSC
Color space : YUV
Chroma subsampling : 4:2:0
Bit depth : 10 bits
Scan type : Progressive
Bits/(Pixel*Frame) : 0.302
Stream size : 33.4 GiB (83%)
Title : The Sword in the Stone 1963 UHD 4K SDR AVC WEB-DL
Writing library : x264 core 148
Encoding settings : cabac=1 / ref=5 / deblock=1:0:0 / analyse=0x3:0x113 / me=dia / subme=2 / psy=1 / psy_rd=1.00:0.00 / mixed_ref=0 / me_range=16 / chroma_me=1 / trellis=0 / 8x8dct=1 / cqm=1 / deadzone=21,11 / fast_pskip=1 / chroma_qp_offset=0 / threads=4 / lookahead_threads=4 / sliced_threads=1 / slices=4 / nr=0 / decimate=1 / interlaced=0 / minigop=0 / stitchable=1 / constrained_intra=0 / bframes=6 / b_pyramid=1 / b_adapt=1 / b_bias=0 / direct=1 / weightb=1 / open_gop=1 / weightp=0 / keyint=120 / keyint_min=60 / scenecut=100 / intra_refresh=0 / rc_lookahead=10 / rc=abr / mbtree=1 / bitrate=60000 / ratetol=1.0 / qcomp=0.60 / qpmin=1 / qpmax=69 / qpstep=4 / vbv_maxrate=80000 / vbv_bufsize=80000 / nal_hrd=vbr / filler=0 / ip_ratio=1.40 / aq=1:1.00
Language : English
Default : Yes
Forced : Yes
Color range : Full
Color primaries : BT.709
Transfer characteristics : BT.709
Matrix coefficients : BT.709

Audio #1
ID : 2
Format : E-AC-3
Format/Info : Enhanced AC-3
Commercial name : Dolby Digital Plus
Codec ID : A_EAC3
Duration : 1 h 19 min
Bit rate mode : Constant
Bit rate : 1 024 kb/s
Channel(s) : 2 channels
Channel layout : L R
Sampling rate : 48.0 kHz
Frame rate : 31.250 FPS (1536 SPF)
Compression mode : Lossy
Stream size : 584 MiB (1%)
Title : RUS DUB E-AC3-Plus DD2.0 1024kbps Remaster
Language : Russian
Service kind : Complete Main
Default : Yes
Forced : Yes

Audio #2
ID : 3
Format : AC-3
Format/Info : Audio Coding 3
Commercial name : Dolby Digital
Codec ID : A_AC3
Duration : 1 h 19 min
Bit rate mode : Constant
Bit rate : 320 kb/s
Channel(s) : 2 channels
Channel layout : L R
Sampling rate : 48.0 kHz
Frame rate : 31.250 FPS (1536 SPF)
Bit depth : 16 bits
Compression mode : Lossy
Stream size : 182 MiB (0%)
Title : RUS DUB AC3 DD2.0 320kbps Original
Language : Russian
Service kind : Complete Main
Default : No
Forced : No

Audio #3
ID : 4
Format : E-AC-3
Format/Info : Enhanced AC-3
Commercial name : Dolby Digital Plus
Codec ID : A_EAC3
Duration : 1 h 19 min
Bit rate mode : Constant
Bit rate : 1 024 kb/s
Channel(s) : 6 channels
Channel layout : L R C LFE Ls Rs
Sampling rate : 48.0 kHz
Frame rate : 31.250 FPS (1536 SPF)
Compression mode : Lossy
Stream size : 583 MiB (1%)
Title : RUS AVO Mihalev E-AC3-Plus DD5.1 1024kbps Remaster
Language : Russian
Service kind : Complete Main
Default : No
Forced : No

Audio #4
ID : 5
Format : AC-3
Format/Info : Audio Coding 3
Commercial name : Dolby Digital
Codec ID : A_AC3
Duration : 1 h 19 min
Bit rate mode : Constant
Bit rate : 448 kb/s
Channel(s) : 6 channels
Channel layout : L R C LFE Ls Rs
Sampling rate : 48.0 kHz
Frame rate : 31.250 FPS (1536 SPF)
Bit depth : 16 bits
Compression mode : Lossy
Stream size : 255 MiB (1%)
Title : RUS AVO Mihalev AC3 DD5.1 448kbps Original
Language : Russian
Service kind : Complete Main
Default : No
Forced : No

Audio #5
ID : 6
Format : E-AC-3
Format/Info : Enhanced AC-3
Commercial name : Dolby Digital Plus
Codec ID : A_EAC3
Duration : 1 h 19 min
Bit rate mode : Constant
Bit rate : 1 024 kb/s
Channel(s) : 2 channels
Channel layout : L R
Sampling rate : 48.0 kHz
Frame rate : 31.250 FPS (1536 SPF)
Compression mode : Lossy
Stream size : 583 MiB (1%)
Title : RUS AVO Jivov E-AC3-Plus DD2.0 1024kbps Remaster
Language : Russian
Service kind : Complete Main
Default : No
Forced : No

Audio #6
ID : 7
Format : AC-3
Format/Info : Audio Coding 3
Commercial name : Dolby Digital
Codec ID : A_AC3
Duration : 1 h 19 min
Bit rate mode : Constant
Bit rate : 192 kb/s
Channel(s) : 2 channels
Channel layout : L R
Sampling rate : 48.0 kHz
Frame rate : 31.250 FPS (1536 SPF)
Bit depth : 16 bits
Compression mode : Lossy
Stream size : 109 MiB (0%)
Title : RUS AVO Jivov AC3 DD2.0 192kbps Original
Language : Russian
Service kind : Complete Main
Default : No
Forced : No

Audio #7
ID : 8
Format : E-AC-3
Format/Info : Enhanced AC-3
Commercial name : Dolby Digital Plus
Codec ID : A_EAC3
Duration : 1 h 19 min
Bit rate mode : Constant
Bit rate : 1 024 kb/s
Channel(s) : 6 channels
Channel layout : L R C LFE Ls Rs
Sampling rate : 48.0 kHz
Frame rate : 31.250 FPS (1536 SPF)
Compression mode : Lossy
Stream size : 583 MiB (1%)
Title : RUS MVO DVD-Magiya E-AC3-Plus DD5.1 1024kbps Remaster
Language : Russian
Service kind : Complete Main
Default : No
Forced : No

Audio #8
ID : 9
Format : AC-3
Format/Info : Audio Coding 3
Commercial name : Dolby Digital
Codec ID : A_AC3
Duration : 1 h 19 min
Bit rate mode : Constant
Bit rate : 384 kb/s
Channel(s) : 6 channels
Channel layout : L R C LFE Ls Rs
Sampling rate : 48.0 kHz
Frame rate : 31.250 FPS (1536 SPF)
Bit depth : 16 bits
Compression mode : Lossy
Stream size : 219 MiB (1%)
Title : RUS MVO DVD-Magiya AC3 DD5.1 384kbps Original
Language : Russian
Service kind : Complete Main
Default : No
Forced : No

Audio #9
ID : 10
Format : E-AC-3
Format/Info : Enhanced AC-3
Commercial name : Dolby Digital Plus
Codec ID : A_EAC3
Duration : 1 h 19 min
Bit rate mode : Constant
Bit rate : 640 kb/s
Channel(s) : 6 channels
Channel layout : L R C LFE Ls Rs
Sampling rate : 48.0 kHz
Frame rate : 31.250 FPS (1536 SPF)
Compression mode : Lossy
Stream size : 364 MiB (1%)
Title : RUS AVO Dohalov E-AC3-Plus DD5.1 1024kbps Remaster
Language : Russian
Service kind : Complete Main
Default : No
Forced : No

Audio #10
ID : 11
Format : AC-3
Format/Info : Audio Coding 3
Commercial name : Dolby Digital
Codec ID : A_AC3
Duration : 1 h 19 min
Bit rate mode : Constant
Bit rate : 448 kb/s
Channel(s) : 6 channels
Channel layout : L R C LFE Ls Rs
Sampling rate : 48.0 kHz
Frame rate : 31.250 FPS (1536 SPF)
Bit depth : 16 bits
Compression mode : Lossy
Stream size : 255 MiB (1%)
Title : RUS AVO Dohalov AC3 DD5.1 448kbps Original
Language : Russian
Service kind : Complete Main
Default : No
Forced : No

Audio #11
ID : 12
Format : E-AC-3
Format/Info : Enhanced AC-3
Commercial name : Dolby Digital Plus
Codec ID : A_EAC3
Duration : 1 h 19 min
Bit rate mode : Constant
Bit rate : 1 024 kb/s
Channel(s) : 2 channels
Channel layout : L R
Sampling rate : 48.0 kHz
Frame rate : 31.250 FPS (1536 SPF)
Compression mode : Lossy
Stream size : 584 MiB (1%)
Title : RUS AVO Neizvestniy E-AC3-Plus DD2.0 1024kbps Remaster
Language : Russian
Service kind : Complete Main
Default : No
Forced : No

Audio #12
ID : 13
Format : AC-3
Format/Info : Audio Coding 3
Commercial name : Dolby Digital
Codec ID : A_AC3
Duration : 1 h 19 min
Bit rate mode : Constant
Bit rate : 192 kb/s
Channel(s) : 2 channels
Channel layout : L R
Sampling rate : 48.0 kHz
Frame rate : 31.250 FPS (1536 SPF)
Bit depth : 16 bits
Compression mode : Lossy
Stream size : 109 MiB (0%)
Title : RUS AVO Neizvestniy AC3 DD2.0 192kbps Original
Language : Russian
Service kind : Complete Main
Default : No
Forced : No

Audio #13
ID : 14
Format : E-AC-3
Format/Info : Enhanced AC-3
Commercial name : Dolby Digital Plus
Codec ID : A_EAC3
Duration : 1 h 19 min
Bit rate mode : Constant
Bit rate : 1 024 kb/s
Channel(s) : 2 channels
Channel layout : L R
Sampling rate : 48.0 kHz
Frame rate : 31.250 FPS (1536 SPF)
Compression mode : Lossy
Stream size : 583 MiB (1%)
Title : UKR MVO K1 E-AC3-Plus DD2.0 1024kbps Remaster
Language : Ukrainian
Service kind : Complete Main
Default : No
Forced : No

Audio #14
ID : 15
Format : AC-3
Format/Info : Audio Coding 3
Commercial name : Dolby Digital
Codec ID : A_AC3
Duration : 1 h 19 min
Bit rate mode : Constant
Bit rate : 192 kb/s
Channel(s) : 2 channels
Channel layout : L R
Sampling rate : 48.0 kHz
Frame rate : 31.250 FPS (1536 SPF)
Bit depth : 16 bits
Compression mode : Lossy
Stream size : 109 MiB (0%)
Title : UKR MVO K1 AC3 DD2.0 192kbps Original
Language : Ukrainian
Service kind : Complete Main
Default : No
Forced : No

Audio #15
ID : 16
Format : DTS XLL
Format/Info : Digital Theater Systems
Commercial name : DTS-HD Master Audio
Codec ID : A_DTS
Duration : 1 h 19 min
Bit rate mode : Variable
Bit rate : 3 311 kb/s
Channel(s) : 6 channels
Channel layout : C L R Ls Rs LFE
Sampling rate : 48.0 kHz
Frame rate : 93.750 FPS (512 SPF)
Bit depth : 24 bits
Compression mode : Lossless
Stream size : 1.84 GiB (5%)
Title : DTS-HD MA 5.1 24bit 3316 kbps Blu Ray
Language : English
Default : No
Forced : No

Text #1
ID : 17
Format : UTF-8
Codec ID : S_TEXT/UTF8
Codec ID/Info : UTF-8 Plain Text
Duration : 1 h 19 min
Bit rate : 87 b/s
Count of elements : 1104
Stream size : 50.7 KiB (0%)
Title : RUS Full
Language : Russian
Default : Yes
Forced : Yes

Text #2
ID : 18
Format : UTF-8
Codec ID : S_TEXT/UTF8
Codec ID/Info : UTF-8 Plain Text
Duration : 1 h 19 min
Bit rate : 91 b/s
Count of elements : 1103
Stream size : 53.1 KiB (0%)
Title : UKR Full
Language : Ukrainian
Default : No
Forced : No

Text #3
ID : 19
Format : UTF-8
Codec ID : S_TEXT/UTF8
Codec ID/Info : UTF-8 Plain Text
Duration : 1 h 17 min
Bit rate : 62 b/s
Count of elements : 1107
Stream size : 35.6 KiB (0%)
Title : ENG Full
Language : English
Default : No
Forced : No

Menu
00:00:00.000 : en:Opening Credits
00:01:40.434 : en:The Legend Of The Sword In The Stone
00:08:41.479 : en:Wart Drops In For Tea
00:12:46.849 : en:"Higitus Figitus"
00:17:00.727 : en:At Sir Ector's Castle
00:22:08.117 : en:Big News From London
00:26:59.700 : en:A Magical Education For Wart
00:30:25.531 : en:"That's What Makes The World Go Round"
00:39:09.387 : en:A Medieval Assembly Line
00:43:01.076 : en:"A Most Befuddling Thing"
00:49:13.281 : en:Meanwhile, Back At The Castle...
00:54:51.494 : en:Archimedes Takes Over Wart's Education
00:56:38.184 : en:Wart Tries His Wings
00:59:46.705 : en:Madam Mim
01:04:10.510 : en:The Duel Of The Wizards
01:10:18.127 : en:Wart Is Made A Squire
01:15:37.696 : en:King Arthur

piratbit.pw



Скачать Меч в камне через торрент http://i61.fastpic.ru/big/2014/0610/25/16d0b17d1088754e681c157f6a6aec25.jpg Скачать фильм Меч в камне через торрент бесплантно в хорошем качестве Описание: В стародавние времена в центре Лондона появился громадный камень с замурованным в нем старинным мечом. Золотая надпись на мече ... 10 10 3
Info! Золотая раздача, скачанное не засчитывается.
Торрент: Зарегистрирован [2019-09-15 15:47] · скачан: 0 раз
Статус: √ проверено
Размер: 41.97 GB
Как cкачать? Как скачать Меч в камне через торрент | qTorrent

28-11-2019 20:33  

Отключить всю рекламу на сайте

    Дорогой пользователь! Огромная просьба, поблагодарите релизера, оцените раздачу и оставьте свои комментарий, если Вы скачали Меч в камне через торрент бесплатно! Внесите свою лепту в развитие PiratBit!
    Комментировать посты могут только пользователи прошедшие не сложную регистрацию
    Показать сообщения:    

    Меч в камне через торрент
    Скачать бесплатно Меч в камне
    Меч в камне скачать торрент
    Меч в камне смотреть онлайн
    Cкачать фильм Меч в камне бесплатно
    Меч в камне скачать торрент в хорошем качестве
    Меч в камне смотреть онлайн бесплатно в хорошем качестве


    Вы не можете начинать темы
    Вы не можете отвечать на сообщения
    Вы не можете редактировать свои сообщения
    Вы не можете удалять свои сообщения
    Вы не можете голосовать в опросах
    Вы не можете прикреплять файлы к сообщениям
    Вы можете скачивать файлы