Ссылка на приватное зеркало нашего сайта всего за 1$. Внимание количество ограничено!!!

2 сезон

iTunes

iTunes

1

iTunes

iTunes

iTunes

WEBRip

iTunes

30
pack

Новость дня

ВАЖНО

!!Акция!!

Alien_RageХит недели

RePack

Horizon Zero Dawn

ИГРА 18+

pack

RePack

jed

!!Акция!!

Alien_Rage

RePack

fifa19

RePack

Assassins Creed: Odyssey

RePack

NEED FOR SPEED™ PAYBACK

4 сезон

9 сезон

Бесстыжие 9 сезон

Все сериалы

все сериалы на PB.wtf

RePack

FAR CRY 5
  

Аладдин / Aladdin (Рон Клементс, Джон Маскер) [1992, Мультфильм, мюзикл, сказка, приключения, семейный, детский, UHD BDRip 2160p] [SDR] DUB+DVO+AVO piratbit.pw

Аладдин через торрент piratbit.pw

Размер: 17.87 GB | Добавлен: 1 год назад | Торрент скачан:26 раз
Скачать  

13-09-2019 07:35 Аладдин Скачать торрент  

Аладдин / Aladdin
Год выпуска: 1992
Страна: США
Жанр: Мультфильм, мюзикл, сказка, приключения, семейный, детский
Продолжительность: 01:30:41
Перевод: Дублированный, профессиональный двухголосый, авторский
Субтитры: Русские (полные, форсированные); английские (Full, SDH), итальянские (форсированные)

Режиссер: Рон Клементс, Джон Маскер

rating

В ролях: Скотт Венгер, Робин Уильямс, Линда Ларкин, Джонатан Фриман, Фрэнк Уэлкер, Гилберт Готтфрид, Дуглас Сил, Чарльз Адлер, Джек Эйнджел, Кори Бёртон

Описание: Визирь султана Аграбы Джафар уже давно ищет древний артефакт — волшебную лампу с джинном внутри. Известно, что получить её может только один человек, «неограненный алмаз». Это уличный воришка из Аграбы, Аладдин. Со своей ручной мартышкой Абу он с переменным успехом ворует еду у торговцев. Тем временем принцесса Жасмин должна выйти замуж — по закону до своего совершеннолетия и за принца. Девушке же совсем не хочется в угоду традиции связывать свою жизнь с нелюбимым человеком. Она решает сбежать из замка, переодевшись. По неопытности она попадается на «воровстве» — привыкшая к дворцовым порядкам Жасмин упускает из виду, что не всё вокруг принадлежит ей, и она угощает ребёнка чужим фруктом. Ей грозит отрубание руки, но её выручает Аладдин. Они убегают, но стража настигает их, и Жасмин приходится открыться. Её возвращают во дворец, Аладдина же сажают в тюрьму. Джафар, замаскировавшись под старика-заключённого, подбивает юношу бежать с ним, а в обмен на услугу просит добыть лампу. Он сообщает Жасмин, что Аладдин казнен. Принцесса в отчаянии — она успела привязаться к симпатичному находчивому юноше. Аладдину с большим трудом удается добыть лампу, и, хоть благодаря Абу она не досталась Джафару, юноша оказывается замурованным в пещере. Случайно он вызывает джинна — и тот говорит, что исполнит три любых желания, за некоторыми исключениями. Выбравшись из подземелья, Аладдин просит джинна сделать его принцем — он надеется таким образом завоевать любовь принцессы. Но Джафар со своим ручным попугаем Яго не оставляет попыток завладеть лампой…

Качество: UHD BDRip 2160p
Формат: MKV

Видео: HEVC SDR, 23.9 Mбит/с, 3840x2160, 23.976 кадр/с, 10 Бит
Аудио#1: AC3 Dolby Digital, 48 kHz, 3/2 (L,C,R,l,r) + LFE ch, 640kbps | Полное дублирование
Аудио#2: Digital Theater Systems, 48 kHz, 3/2 (L,C,R,l,r) + LFE ch, 1509 kbps | Двухголосый закадровый, П.Гланц и И.Королёва
Аудио#3: Digital Theater Systems, 48 kHz, 3/2 (L,C,R,l,r) + LFE ch, 1509 kbps | Одноголосый закадровый, А.Михалев
Аудио#4: AC3 Dolby Digital, 48 kHz, 3/2 (L,C,R,l,r) + LFE ch, 640kbps | Оригинал
скриншот  скриншот  скриншот  

скриншот  скриншот  скриншот  

Общее
Уникальный идентификатор : 237458487616983675940025729236775018606 (0xB2A4D757E734180CAC68A6569C61206E)
Полное имя : D:\Передел\Aladdin.1992.2160p.UHD.BDRip.SDR.x265.10bit.Master5.mkv
Формат : Matroska
Версия формата : Version 4
Размер файла : 17,9 Гбайт
Продолжительность : 1 ч. 30 м.
Общий поток : 28,2 Мбит/сек
Название фильма : Aladdin.1992.2160p.UHD.BDRip.SDR.x265.10bit.Master5
Дата кодирования : UTC 2019-09-12 18:42:42
Программа кодирования : mkvmerge v7.9.0 ('Birds') 64bit
Библиотека кодирования : libebml v1.3.1 + libmatroska v1.4.2
Обложка : Yes
Attachments : small_cover.jpg / small_cover_land.jpg / cover.jpg / cover_land.jpg / cover / encode.log / Aladdin.avs

Видео
Идентификатор : 1
Формат : HEVC
Формат/Информация : High Efficiency Video Coding
Профиль формата : Main 10@L5.1@High
Идентификатор кодека : V_MPEGH/ISO/HEVC
Продолжительность : 1 ч. 30 м.
Битрейт : 23,9 Мбит/сек
Ширина : 3584 пикселя
Высота : 2160 пикселей
Соотношение сторон : 5:3
Режим частоты кадров : Постоянный
Частота кадров : 23,976 (24000/1001) кадра/сек
Цветовое пространство : YUV
Субдискретизация насыщенности : 4:2:0
Битовая глубина : 10 бит
Бит/(Пиксели*Кадры) : 0.129
Размер потока : 15,1 Гбайт (85%)
Заголовок : Aladdin.1992.2160p.UHD.BDRip.SDR.x265.10bit.Master5
Библиотека кодирования : x265 3.0+1-ed72af837053:[Windows][GCC 8.2.0][64 bit] 10bit
Настройки программы : cpuid=1111039 / frame-threads=16 / numa-pools=44,44 / wpp / no-pmode / no-pme / no-psnr / no-ssim / log-level=2 / input-csp=1 / input-res=3584x2160 / interlace=0 / total-frames=130417 / level-idc=51 / high-tier=1 / uhd-bd=0 / ref=3 / no-allow-non-conformance / repeat-headers / annexb / aud / hrd / info / hash=0 / no-temporal-layers / no-open-gop / min-keyint=1 / keyint=24 / gop-lookahead=0 / bframes=6 / b-adapt=2 / b-pyramid / bframe-bias=0 / rc-lookahead=25 / lookahead-slices=4 / scenecut=40 / radl=0 / no-splice / no-intra-refresh / ctu=64 / min-cu-size=8 / no-rect / no-amp / max-tu-size=32 / tu-inter-depth=1 / tu-intra-depth=1 / limit-tu=0 / rdoq-level=0 / dynamic-rd=0.00 / no-ssim-rd / signhide / no-tskip / nr-intra=0 / nr-inter=0 / no-constrained-intra / strong-intra-smoothing / max-merge=2 / limit-refs=3 / no-limit-modes / me=1 / subme=2 / merange=57 / temporal-mvp / weightp / no-weightb / no-analyze-src-pics / deblock=1:1 / no-sao / no-sao-non-deblock / rd=3 / no-early-skip / rskip / no-fast-intra / no-tskip-fast / no-cu-lossless / no-b-intra / no-splitrd-skip / rdpenalty=0 / psy-rd=0.40 / psy-rdoq=0.00 / no-rd-refine / no-lossless / cbqpoffs=0 / crqpoffs=0 / rc=crf / crf=14.0 / qcomp=0.60 / qpstep=4 / stats-write=0 / stats-read=0 / vbv-maxrate=160000 / vbv-bufsize=160000 / vbv-init=0.9 / crf-max=0.0 / crf-min=0.0 / ipratio=1.40 / pbratio=1.30 / aq-mode=1 / aq-strength=0.40 / cutree / zone-count=0 / no-strict-cbr / qg-size=32 / no-rc-grain / qpmax=69 / qpmin=0 / no-const-vbv / sar=1 / overscan=0 / videoformat=5 / range=0 / colorprim=2 / transfer=2 / colormatrix=2 / chromaloc=0 / display-window=0 / max-cll=0,0 / min-luma=0 / max-luma=1023 / log2-max-poc-lsb=8 / vui-timing-info / vui-hrd-info / slices=1 / opt-qp-pps / opt-ref-list-length-pps / no-multi-pass-opt-rps / scenecut-bias=0.05 / no-opt-cu-delta-qp / no-aq-motion / no-hdr / no-hdr-opt / no-dhdr10-opt / no-idr-recovery-sei / analysis-reuse-level=5 / scale-factor=0 / refine-intra=0 / refine-inter=0 / refine-mv=0 / refine-ctu-distortion=0 / no-limit-sao / ctu-info=0 / no-lowpass-dct / refine-analysis-type=0 / copy-pic=1 / max-ausize-factor=1.0 / no-dynamic-refine / no-single-sei / no-hevc-aq / qp-adaptation-range=1.00
Default : Да
Forced : Нет

Аудио #1
Идентификатор : 2
Формат : AC-3
Формат/Информация : Audio Coding 3
Коммерческое название : Dolby Digital
Идентификатор кодека : A_AC3
Продолжительность : 1 ч. 30 м.
Вид битрейта : Постоянный
Битрейт : 640 Кбит/сек
Каналы : 6 каналов
Channel layout : L R C LFE Ls Rs
Частота : 48,0 КГц
Частота кадров : 31,250 кадров/сек (1536 SPF)
Битовая глубина : 16 бит
Метод сжатия : С потерями
Размер потока : 415 Мбайт (2%)
Заголовок : Полное дублирование, СЕЕ
Язык : Russian
ServiceKind/String : Complete Main
Default : Да
Forced : Нет

Аудио #2
Идентификатор : 3
Формат : DTS
Формат/Информация : Digital Theater Systems
Идентификатор кодека : A_DTS
Продолжительность : 1 ч. 30 м.
Вид битрейта : Постоянный
Битрейт : 1509 Кбит/сек
Каналы : 6 каналов
Channel layout : C L R Ls Rs LFE
Частота : 48,0 КГц
Частота кадров : 93,750 кадра/сек (512 SPF)
Битовая глубина : 24 бит
Метод сжатия : С потерями
Размер потока : 979 Мбайт (5%)
Заголовок : Одноголосый закадровый, П.Гланц и И.Королёва
Язык : Russian
Default : Нет
Forced : Нет

Аудио #3
Идентификатор : 4
Формат : DTS
Формат/Информация : Digital Theater Systems
Идентификатор кодека : A_DTS
Продолжительность : 1 ч. 30 м.
Вид битрейта : Постоянный
Битрейт : 1509 Кбит/сек
Каналы : 6 каналов
Channel layout : C L R Ls Rs LFE
Частота : 48,0 КГц
Частота кадров : 93,750 кадра/сек (512 SPF)
Битовая глубина : 24 бит
Метод сжатия : С потерями
Размер потока : 979 Мбайт (5%)
Заголовок : Одноголосый закадровый, А.Михалёв
Язык : Russian
Default : Нет
Forced : Нет

Аудио #4
Идентификатор : 5
Формат : AC-3
Формат/Информация : Audio Coding 3
Коммерческое название : Dolby Digital
Идентификатор кодека : A_AC3
Продолжительность : 1 ч. 30 м.
Вид битрейта : Постоянный
Битрейт : 640 Кбит/сек
Каналы : 6 каналов
Channel layout : L R C LFE Ls Rs
Частота : 48,0 КГц
Частота кадров : 31,250 кадров/сек (1536 SPF)
Битовая глубина : 16 бит
Метод сжатия : С потерями
Размер потока : 415 Мбайт (2%)
Язык : English
ServiceKind/String : Complete Main
Default : Нет
Forced : Нет

Текст #1
Идентификатор : 6
Формат : UTF-8
Идентификатор кодека : S_TEXT/UTF8
Идентификатор кодека/Информация : UTF-8 Plain Text
Продолжительность : 1 ч. 25 м.
Битрейт : 0 бит/сек
ElementCount : 4
Размер потока : 143 байт (0%)
Заголовок : Форсированные
Язык : Italian
Default : Да
Forced : Нет

Текст #2
Идентификатор : 7
Формат : UTF-8
Идентификатор кодека : S_TEXT/UTF8
Идентификатор кодека/Информация : UTF-8 Plain Text
Продолжительность : 1 ч. 29 м.
Битрейт : 92 бит/сек
ElementCount : 1170
Размер потока : 60,8 Кбайт (0%)
Заголовок : Полные
Язык : Russian
Default : Нет
Forced : Нет

Текст #3
Идентификатор : 8
Формат : UTF-8
Идентификатор кодека : S_TEXT/UTF8
Идентификатор кодека/Информация : UTF-8 Plain Text
Продолжительность : 1 ч. 29 м.
Битрейт : 62 бит/сек
ElementCount : 1292
Размер потока : 41,2 Кбайт (0%)
Заголовок : Full
Язык : English
Default : Нет
Forced : Нет

Текст #4
Идентификатор : 9
Формат : UTF-8
Идентификатор кодека : S_TEXT/UTF8
Идентификатор кодека/Информация : UTF-8 Plain Text
Продолжительность : 1 ч. 29 м.
Битрейт : 69 бит/сек
ElementCount : 1465
Размер потока : 45,5 Кбайт (0%)
Заголовок : Full (SDH)
Язык : English
Default : Нет
Forced : Нет

Меню
00:00:00.000 : en:"Arabian Nights"
00:03:06.061 : en:It Begins on a Dark Night
00:06:47.324 : en:Aladdin on the Run / "One Jump Ahead"
00:12:37.423 : en:Princess Jasmine
00:16:34.619 : en:Jasmine Runs Away
00:19:39.053 : en:Jafar Discovers His Diamond in the Rough
00:23:50.471 : en:Jasmine Confronts Jafar
00:27:39.324 : en:Aladdin at the Cave of Wonders
00:31:21.630 : en:A Narrow Escape
00:34:55.677 : en:Trapped!
00:37:20.363 : en:"A Friend Like Me"
00:41:13.388 : en:The Sultan Upbraids Jafar
00:43:32.860 : en:Aladdin Contemplates His Three Wishes
00:47:17.043 : en:Jafar's Solution to the Problem
00:48:39.959 : en:"Prince Ali"
00:55:20.025 : en:Prince Ali Appears on Jasmine's Balcony
00:57:37.746 : en:A Ride on the Magic Carpet / "a Whole New World"
01:03:04.906 : en:Aladdin Almost Drowns
01:07:24.916 : en:Aladdin's Dilemma
01:10:07.412 : en:A Royal Announcement
01:10:41.654 : en:The Genie's New Master
01:15:31.610 : en:Jafar in Power
01:18:57.983 : en:Jafar the Snake
01:21:41.438 : en:Back to Normal
01:25:43.555 : en:End Credits / "A Whole New World"

piratbit.pw



Скачать Аладдин через торрент http://img10.lostpic.net/2019/02/02/e9de6c5acb145912a9e6757460c66278.png Скачать фильм Аладдин через торрент бесплантно в хорошем качестве Описание: Визирь султана Аграбы Джафар уже давно ищет древний артефакт — волшебную лампу с джинном внутри. Известно, что получить её может ... 10 10 4
Торрент: Зарегистрирован [2019-09-13 07:35] · скачан: 26 раз
Статус: √ проверено
Размер: 17.87 GB
Как cкачать? Как скачать Аладдин через торрент | qTorrent

% Раздел Тема Автор DL S | L
Зарубежные Мультфильмы (BDRip 1080p, 720p, Blu-ray, BD-Remux) [ 11.55 GB ] Аладдин: Трилогия / Aladdin: Trilogy [1992-1996 мюзикл BDRip 720p от еnvy / NNNB] DUB AVO DVO еnvy Скачать
16 | 3
Зарубежные Мультфильмы (BDRip 1080p, 720p, Blu-ray, BD-Remux) [ 6.2 GB ] Аладдин / Aladdin [1992 мультфильм мюзикл BDRip 1080p DUB+DVO+AVO+Eng] Userman4ik Скачать
1 | 0

28-11-2019 20:33  

Отключить всю рекламу на сайте

    Дорогой пользователь! Огромная просьба, поблагодарите релизера, оцените раздачу и оставьте свои комментарий, если Вы скачали Аладдин через торрент бесплатно! Внесите свою лепту в развитие PiratBit!
    Комментировать посты могут только пользователи прошедшие не сложную регистрацию
    Показать сообщения:    

    Аладдин через торрент
    Скачать бесплатно Аладдин
    Аладдин скачать торрент
    Аладдин смотреть онлайн
    Cкачать фильм Аладдин бесплатно
    Аладдин скачать торрент в хорошем качестве
    Аладдин смотреть онлайн бесплатно в хорошем качестве


    Вы не можете начинать темы
    Вы не можете отвечать на сообщения
    Вы не можете редактировать свои сообщения
    Вы не можете удалять свои сообщения
    Вы не можете голосовать в опросах
    Вы не можете прикреплять файлы к сообщениям
    Вы можете скачивать файлы