1 сезон

1 сезон

iTunes

1

КиноПоиск HD

Кинопоиск HD

iTunes

13

1 сезон

RePack

30

Ultimate

ВАЖНО

ИГРА 18+

pack

RePack

MK11
pack

Легкие деньги

RePack

jed

RePack

fifa19

RePack

RDR2

RePack

NEED FOR SPEED™ PAYBACK

4 сезон

9 сезон

Бесстыжие 9 сезон

Все сериалы

все сериалы на PB.wtf

RePack

FAR CRY 5
  
Magnet ссылка

Ночью Эвелин вышла из могилы / La Notte Che Evelyn Usci Dalla Tomba (Эмилио Миралья) [1971, ужасы, триллер, детектив, BDRip 720p by msltel] AVO piratbit.pw

Ночью Эвелин вышла из могилы через торрент piratbit.pw

Размер: 3.35 GB | Добавлен: 1 год 7 мес. назад | Торрент скачан:7 раз
Скачать  

12-09-2019 08:30 Ночью Эвелин вышла из могилы Скачать торрент  

Название: Ночью Эвелин вышла из могилы
Оригинальное название: La Notte Che Evelyn Usci Dalla Tomba
Год выпуска: 1971
Страна: Италия
Жанр: ужасы, триллер, детектив
Продолжительность: 01:42:48
Перевод: авторский

Режиссер: Эмилио Миралья
В ролях: Энтони Стеффен, Марина Малфатти, Эрика Бланк, Джакомо Росси-Стюарт, Энцо Тарашо, Умберто Рахо, Джоан С. Дэвис, Этторе Бевилакуа, Мария Тереза Тофано

О фильме: Состоятельный английский лорд по фамилии Каннингем потерял свою рыжеволосую жену-красавицу Эвелин. С тех пор рассудок Каннингема помутился, и он, знакомясь с рыжеволосыми девушками на улицах или в баре, приводит их в свой замок, издевается, насилует, а затем убивает. Пытаясь избавиться от навязчивых идей убийства, Каннингем женится и пытается лечиться у знакомого доктора. Вскоре новая жена Каннингема, заглянув в фамильный склеп, приходит к своему мужу и заявляет, что могила Эвелин пуста...



Качество: BDRip 720p
Формат: MKV
Видео: MPEG-4 AVC, 4279 Кбит/с, 1280x544, 23.976 кадр/с
Аудио 1: русский, AC3, 192 kbps, 2 ch, 48 kHz [авторский, Вадим Белов]
Аудио 2: итальянский, AC3, 192 kbps, ch, 48 kHz [оригинал]
Субтитры: английские
Главы/чаптеры
Общее
Уникальный идентификатор : 204298648000813876535576340280111308070 (0x99B27D065B8C9AECAFCDC6F54C449D26)
Полное имя : D:\Video\Ночью Эвелин вышла из могилы.1971.BDRip 720p by msltel.mkv
Формат : Matroska
Версия формата : Version 4
Размер файла : 3,35 Гбайт
Продолжительность : 1 ч. 42 м.
Общий поток : 4665 Кбит/сек
Название фильма : Rip by msltel
Дата кодирования : UTC 2019-09-12 07:29:26
Программа кодирования : mkvmerge v8.2.0 ('World of Adventure') 64bit
Библиотека кодирования : libebml v1.3.1 + libmatroska v1.4.2

Видео
Идентификатор : 1
Формат : AVC
Формат/Информация : Advanced Video Codec
Профиль формата : High@L4.1
Настройки формата : CABAC / 9 Ref Frames
Параметр CABAC формата : Да
Параметр RefFrames формата : 9 кадров
Идентификатор кодека : V_MPEG4/ISO/AVC
Продолжительность : 1 ч. 42 м.
Битрейт : 4279 Кбит/сек
Ширина : 1280 пикселей
Высота : 544 пикселя
Соотношение сторон : 2,35:1
Режим частоты кадров : Постоянный
Частота кадров : 23,976 (24000/1001) кадра/сек
Цветовое пространство : YUV
Субдискретизация насыщенности : 4:2:0
Битовая глубина : 8 бит
Тип развёртки : Прогрессивная
Бит/(Пиксели*Кадры) : 0.256
Размер потока : 3,07 Гбайт (92%)
Библиотека кодирования : x264 core 157 r2935 545de2f
Настройки программы : cabac=1 / ref=9 / deblock=1:-2:-2 / analyse=0x3:0x113 / me=umh / subme=11 / psy=1 / psy_rd=1.00:0.15 / mixed_ref=1 / me_range=32 / chroma_me=1 / trellis=2 / 8x8dct=1 / cqm=0 / deadzone=21,11 / fast_pskip=0 / chroma_qp_offset=-3 / threads=6 / lookahead_threads=1 / sliced_threads=0 / nr=0 / decimate=1 / interlaced=0 / bluray_compat=0 / constrained_intra=0 / bframes=13 / b_pyramid=2 / b_adapt=2 / b_bias=0 / direct=1 / weightb=1 / open_gop=0 / weightp=2 / keyint=230 / keyint_min=23 / scenecut=40 / intra_refresh=0 / rc_lookahead=40 / rc=crf / mbtree=1 / crf=19.5 / qcomp=0.60 / qpmin=0 / qpmax=69 / qpstep=4 / vbv_maxrate=50000 / vbv_bufsize=62500 / crf_max=0.0 / nal_hrd=none / filler=0 / ip_ratio=1.40 / aq=1:1.00
Язык : Italian
Default : Да
Forced : Нет

Аудио #1
Идентификатор : 2
Формат : AC-3
Формат/Информация : Audio Coding 3
Коммерческое название : Dolby Digital
Идентификатор кодека : A_AC3
Продолжительность : 1 ч. 42 м.
Вид битрейта : Постоянный
Битрейт : 192 Кбит/сек
Каналы : 2 канала
ChannelLayout : L R
Частота : 48,0 КГц
Частота кадров : 31,250 кадров/сек (1536 SPF)
Метод сжатия : С потерями
Размер потока : 141 Мбайт (4%)
Заголовок : Вадим Белов
Язык : Russian
ServiceKind/String : Complete Main
Default : Да
Forced : Нет

Аудио #2
Идентификатор : 3
Формат : AC-3
Формат/Информация : Audio Coding 3
Коммерческое название : Dolby Digital
Идентификатор кодека : A_AC3
Продолжительность : 1 ч. 42 м.
Вид битрейта : Постоянный
Битрейт : 192 Кбит/сек
Каналы : 1 канал
ChannelLayout : C
Частота : 48,0 КГц
Частота кадров : 31,250 кадров/сек (1536 SPF)
Метод сжатия : С потерями
Размер потока : 141 Мбайт (4%)
Заголовок : original
Язык : Italian
ServiceKind/String : Complete Main
Default : Нет
Forced : Нет

Текст
Идентификатор : 4
Формат : UTF-8
Идентификатор кодека : S_TEXT/UTF8
Идентификатор кодека/Информация : UTF-8 Plain Text
Продолжительность : 1 ч. 40 м.
Битрейт : 46 бит/сек
ElementCount : 1040
Размер потока : 34,0 Кбайт (0%)
Заголовок : английские
Язык : English
Default : Нет
Forced : Нет

Меню
00:00:00.000 : en:00:00:00.000
00:08:24.796 : en:00:08:24.796
00:17:54.407 : en:00:17:54.407
00:27:14.550 : en:00:27:14.550
00:34:00.080 : en:00:34:00.080
00:42:24.250 : en:00:42:24.250
00:47:50.326 : en:00:47:50.326
00:57:43.585 : en:00:57:43.585
01:07:10.818 : en:01:07:10.818
01:18:53.687 : en:01:18:53.687
01:27:00.048 : en:01:27:00.048
01:33:38.780 : en:01:33:38.780
piratbit.pw



Скачать Ночью Эвелин вышла из могилы через торрент https://c.radikal.ru/c39/1909/88/2b646e7183c3.jpg Скачать фильм Ночью Эвелин вышла из могилы через торрент бесплантно в хорошем качестве О фильме: Состоятельный английский лорд по фамилии Каннингем потерял свою рыжеволосую жену-красавицу Эвелин. С тех пор рассудок Каннингема ... 10 10 1
Info! Золотая раздача, скачанное не засчитывается.
Торрент: Зарегистрирован [2019-09-12 08:30] · скачан: 7 раз
Статус: √ проверено
Размер: 3.35 GB
Как cкачать? Как скачать Ночью Эвелин вышла из могилы через торрент | UTorrent

% Раздел Тема Автор DL S | L
Фильмы с авторской озвучкой [ 9.17 GB ] Ночью Эвелин вышла из могилы / La Notte Che Evelyn Usci Dalla Tomba [1971 BDRip 1080p by msltel] AVO msltel Скачать
1 | 0

28-11-2019 20:33  

Отключить всю рекламу на сайте

    Дорогой пользователь! Огромная просьба, поблагодарите релизера, оцените раздачу и оставьте свои комментарий, если Вы скачали Ночью Эвелин вышла из могилы через торрент бесплатно! Внесите свою лепту в развитие PiratBit!
    Комментировать посты могут только пользователи прошедшие не сложную регистрацию
    Показать сообщения:    

    Ночью Эвелин вышла из могилы через торрент
    Скачать бесплатно Ночью Эвелин вышла из могилы
    Ночью Эвелин вышла из могилы скачать торрент
    Ночью Эвелин вышла из могилы смотреть онлайн
    Cкачать фильм Ночью Эвелин вышла из могилы бесплатно
    Ночью Эвелин вышла из могилы скачать торрент в хорошем качестве
    Ночью Эвелин вышла из могилы смотреть онлайн бесплатно в хорошем качестве


    Вы не можете начинать темы
    Вы не можете отвечать на сообщения
    Вы не можете редактировать свои сообщения
    Вы не можете удалять свои сообщения
    Вы не можете голосовать в опросах
    Вы не можете прикреплять файлы к сообщениям
    Вы можете скачивать файлы