Ссылка на приватное зеркало нашего сайта всего за 1$. Внимание количество ограничено!!!

2 сезон

iTunes

1 сезон

1

iTunes

iTunes

iTunes

1 сезон

RePack

30

ИГРА 18+

pack

ВАЖНО

!!Акция!!

Alien_RageХит недели

RePack

MK11
pack

Забери бонус

RePack

jed

!!Акция!!

Alien_Rage

RePack

fifa19

RePack

Assassins Creed: Odyssey

RePack

NEED FOR SPEED™ PAYBACK

4 сезон

9 сезон

Бесстыжие 9 сезон

Все сериалы

все сериалы на PB.wtf

RePack

FAR CRY 5
  

Такая как ты есть / Cosi come sei (Альберто Латтуада) [1978, драма, мелодрама, BDRip 1080p by msltel] MVO, DVO piratbit.pw

Такая как ты есть через торрент piratbit.pw

Размер: 9.63 GB | Добавлен: 1 год 1 мес. назад | Торрент скачан:3 раза
Скачать  

12-09-2019 05:06 Такая как ты есть Скачать торрент  

Название: Такая как ты есть
Оригинальное название: Cosi come sei
Год выпуска: 1978
Страна: Италия, Испания
Жанр: драма, мелодрама
Продолжительность: 01:44:38
Перевод: профессиональный многоголосый, профессиональный двухголосый

Режиссер: Альберто Латтуада
В ролях: Настасья Кински, Франсиско Рабаль, Марчелло Мастроянни, Моника Рандалл, Ания Пьерони, Барбара Де Росси, Хосе Мария Каффарель, Раймондо Пенне, Джулиана Каландра, Клаудио Алиотти, Массимо Бонетти, Марио Чекки, Адриана Фалько

О фильме: Джулио Маренго сегодня не так молод и проворен, как прежде. Его любовные победы остались в прошлом, но, оказавшись в городе своей юности, он знакомится с хорошенькой студенткой Франческой. Вот только от полноценного романа его удерживает брошенная другом фраза - Франческа дочь давней подруги Джулио. А кто её отец - осталось тайной. Он долго пытается выясснить, не является ли он сам её отцом, а смущённая Франческа никак не может понять характер своих странных отношений с этим стареющим мужчиной...



Качество: BDRip 1080p
Формат: MKV
Видео: MPEG-4 AVC, 12.6 Mбит/с, 1912x1080, 23.976 кадр/с
Аудио 1: русский, AC3, 192 kbps, 2 ch, 48 kHz [закадровый многоголосый, 5 канал]
Аудио 2: русский, AC3, 192 kbps, 2 ch, 48 kHz [закадровый двухголосый, НТВ+]
Аудио 3: итальянский, AC3, 192 kbps, 2 ch, 48 kHz [оригинал]
Субтитры: английские
Общее
Уникальный идентификатор : 229967721137386288578522250618383556391 (0xAD022C0AB0570A56883B441F2E42DF27)
Полное имя : D:\Video\Такая как ты есть.1978.BDRip 1080p by msltel.mkv
Формат : Matroska
Версия формата : Version 4
Размер файла : 9,63 Гбайт
Продолжительность : 1 ч. 44 м.
Общий поток : 13,2 Мбит/сек
Название фильма : Rip by msltel
Дата кодирования : UTC 2019-09-12 02:04:18
Программа кодирования : mkvmerge v8.2.0 ('World of Adventure') 64bit
Библиотека кодирования : libebml v1.3.1 + libmatroska v1.4.2

Видео
Идентификатор : 1
Формат : AVC
Формат/Информация : Advanced Video Codec
Профиль формата : High@L4.1
Настройки формата : CABAC / 4 Ref Frames
Параметр CABAC формата : Да
Параметр RefFrames формата : 4 кадра
Идентификатор кодека : V_MPEG4/ISO/AVC
Продолжительность : 1 ч. 44 м.
Битрейт : 12,6 Мбит/сек
Ширина : 1912 пикселей
Высота : 1080 пикселей
Соотношение сторон : 16:9
Режим частоты кадров : Постоянный
Частота кадров : 23,976 (24000/1001) кадра/сек
Цветовое пространство : YUV
Субдискретизация насыщенности : 4:2:0
Битовая глубина : 8 бит
Тип развёртки : Прогрессивная
Бит/(Пиксели*Кадры) : 0.255
Размер потока : 9,21 Гбайт (96%)
Библиотека кодирования : x264 core 157 r2935 545de2f
Настройки программы : cabac=1 / ref=4 / deblock=1:-2:-2 / analyse=0x3:0x113 / me=umh / subme=11 / psy=1 / psy_rd=1.00:0.15 / mixed_ref=1 / me_range=32 / chroma_me=1 / trellis=2 / 8x8dct=1 / cqm=0 / deadzone=21,11 / fast_pskip=0 / chroma_qp_offset=-3 / threads=6 / lookahead_threads=1 / sliced_threads=0 / nr=0 / decimate=1 / interlaced=0 / bluray_compat=0 / constrained_intra=0 / bframes=7 / b_pyramid=2 / b_adapt=2 / b_bias=0 / direct=1 / weightb=1 / open_gop=0 / weightp=2 / keyint=230 / keyint_min=23 / scenecut=40 / intra_refresh=0 / rc_lookahead=40 / rc=crf / mbtree=1 / crf=16.8 / qcomp=0.60 / qpmin=0 / qpmax=69 / qpstep=4 / vbv_maxrate=50000 / vbv_bufsize=62500 / crf_max=0.0 / nal_hrd=none / filler=0 / ip_ratio=1.40 / aq=1:1.00
Язык : Italian
Default : Да
Forced : Нет

Аудио #1
Идентификатор : 2
Формат : AC-3
Формат/Информация : Audio Coding 3
Коммерческое название : Dolby Digital
Идентификатор кодека : A_AC3
Продолжительность : 1 ч. 44 м.
Вид битрейта : Постоянный
Битрейт : 192 Кбит/сек
Каналы : 2 канала
ChannelLayout : L R
Частота : 48,0 КГц
Частота кадров : 31,250 кадров/сек (1536 SPF)
Битовая глубина : 16 бит
Метод сжатия : С потерями
Размер потока : 144 Мбайт (1%)
Заголовок : MVO 5 канал
Язык : Russian
ServiceKind/String : Complete Main
Default : Да
Forced : Нет

Аудио #2
Идентификатор : 3
Формат : AC-3
Формат/Информация : Audio Coding 3
Коммерческое название : Dolby Digital
Идентификатор кодека : A_AC3
Продолжительность : 1 ч. 44 м.
Вид битрейта : Постоянный
Битрейт : 192 Кбит/сек
Каналы : 2 канала
ChannelLayout : L R
Частота : 48,0 КГц
Частота кадров : 31,250 кадров/сек (1536 SPF)
Битовая глубина : 16 бит
Метод сжатия : С потерями
Размер потока : 144 Мбайт (1%)
Заголовок : DVO HTB+
Язык : Russian
ServiceKind/String : Complete Main
Default : Нет
Forced : Нет

Аудио #3
Идентификатор : 4
Формат : AC-3
Формат/Информация : Audio Coding 3
Коммерческое название : Dolby Digital
Идентификатор кодека : A_AC3
Продолжительность : 1 ч. 44 м.
Вид битрейта : Постоянный
Битрейт : 192 Кбит/сек
Каналы : 2 канала
ChannelLayout : L R
Частота : 48,0 КГц
Частота кадров : 31,250 кадров/сек (1536 SPF)
Битовая глубина : 16 бит
Метод сжатия : С потерями
Размер потока : 144 Мбайт (1%)
Заголовок : original
Язык : Italian
ServiceKind/String : Complete Main
Default : Нет
Forced : Нет

Текст
Идентификатор : 5
Формат : UTF-8
Идентификатор кодека : S_TEXT/UTF8
Идентификатор кодека/Информация : UTF-8 Plain Text
Продолжительность : 1 ч. 38 м.
Битрейт : 44 бит/сек
ElementCount : 911
Размер потока : 32,0 Кбайт (0%)
Заголовок : английские
Язык : English
Default : Нет
Forced : Нет
piratbit.pw



Скачать Такая как ты есть через торрент https://d.radikal.ru/d42/1909/a2/2d9440c66e74.jpg Скачать фильм Такая как ты есть через торрент бесплантно в хорошем качестве О фильме: Джулио Маренго сегодня не так молод и проворен, как прежде. Его любовные победы остались в прошлом, но, оказавшись в городе своей ... 5 10 1
Торрент: Зарегистрирован [2019-09-12 05:06] · скачан: 3 раз
Статус: √ проверено
Размер: 9.63 GB
Как cкачать? Как скачать Такая как ты есть через торрент | qTorrent

% Раздел Тема Автор DL S | L
Классика зарубежного кино [ 4.61 GB ] Такая как ты есть / Cosi come sei [1978 BDRip 720p by msltel] MVO DVO msltel Скачать
1 | 0

28-11-2019 20:33  

Отключить всю рекламу на сайте

    Дорогой пользователь! Огромная просьба, поблагодарите релизера, оцените раздачу и оставьте свои комментарий, если Вы скачали Такая как ты есть через торрент бесплатно! Внесите свою лепту в развитие PiratBit!
    Комментировать посты могут только пользователи прошедшие не сложную регистрацию
    Показать сообщения:    

    Такая как ты есть через торрент
    Скачать бесплатно Такая как ты есть
    Такая как ты есть скачать торрент
    Такая как ты есть смотреть онлайн
    Cкачать фильм Такая как ты есть бесплатно
    Такая как ты есть скачать торрент в хорошем качестве
    Такая как ты есть смотреть онлайн бесплатно в хорошем качестве


    Вы не можете начинать темы
    Вы не можете отвечать на сообщения
    Вы не можете редактировать свои сообщения
    Вы не можете удалять свои сообщения
    Вы не можете голосовать в опросах
    Вы не можете прикреплять файлы к сообщениям
    Вы можете скачивать файлы