Marvel's Avengers Deluxe Edition (супер цена) 159р. Внимание количество ограничено!!!

2 сезон

iTunes

iTunes

1

iTunes

iTunes

iTunes

WEBRip

iTunes

30
pack

Новость дня

ВАЖНО

!!Акция!!

Alien_RageХит недели

RePack

Horizon Zero Dawn

ИГРА 18+

pack

RePack

jed

!!Акция!!

Alien_Rage

RePack

fifa19

RePack

Assassins Creed: Odyssey

RePack

NEED FOR SPEED™ PAYBACK

4 сезон

9 сезон

Бесстыжие 9 сезон

Все сериалы

все сериалы на PB.wtf

RePack

FAR CRY 5
  

Хороший динозавр / The Good Dinosaur (Питер Сон) [2015, Мультфильм, фэнтези, комедия, приключения, семейный, UHD BDRip 2160p] DUB (rus, ukr) [Лицензия] piratbit.pw

Хороший динозавр через торрент piratbit.pw

Размер: 14.27 GB | Добавлен: 1 год назад | Торрент скачан:6 раз
Скачать  

12-09-2019 00:18 Хороший динозавр Скачать торрент  

Хороший динозавр / The Good Dinosaur
Год выпуска: 2015
Страна: США
Жанр: Мультфильм, фэнтези, комедия, приключения, семейный
Продолжительность: 01:33:50
Перевод: Дублированный | Лицензия
Субтитры: Русские, английские

Режиссер: Питер Сон

rating

В ролях: Джеффри Райт, Фрэнсис МакДорманд, Малиа Нипай-Падилья, Райан Типл, Джек МакГроу, Маркус Скрибнер, Рэймонд Очоа, Джек Брайт, Питер Сон, Стив Зан, Мэнди Фройнд, Стивен Клэй Хантер, А.Дж. Бакли, Анна Пакуин, Сэм Эллиотт, Дэвид Боат, Кэрри Пафф, Кэлам Грант, Джон Ратценбергер

Описание: Представьте, что астероид, некогда навсегда изменивший жизнь на Земле, пролетел мимо нашей планеты и гигантские динозавры существуют по сей день — они далеко обогнали в развитии первобытных людей и создали собственную цивилизацию. Именно там возникла история невероятной дружбы юного бронтозавра Арло и маленького мальчика по имени Дружок. Этим на первый взгляд непохожим героям предстоит вместе совершить опасное путешествие в далекие и таинственные края, научиться бороться со своими страхами и понять, что они не так уж и отличаются друг от друга.

Качество: UHD BDRip 2160p
Формат: MKV

Видео: HEVC HDR, 20.1 Мбит/с, 3840х1608, 23.976 кадр/с, 10 Бит
Аудио#1: AC3 5.1 640 Кбит/сек - Русский Дублированный (Лицензия)
Аудио#2: AC3 5.1 448 Кбит/сек - Украинский Дублированный (Лицензия)
Аудио#3: AC3 5.1 640 Кбит/сек - Английский
скриншот  скриншот  скриншот  

скриншот  скриншот  скриншот  

Общее
Уникальный идентификатор : 248433841056016581273012430817377432652 (0xBAE69E0BE3414FBBB87DE78E08D0B44C)
Полное имя : D:\Передел\The.Good.Dinosaur.2015.BDRip.2160p.x265.10bit.HDR.Master5.mkv
Формат : Matroska
Версия формата : Version 4
Размер файла : 14,3 Гбайт
Продолжительность : 1 ч. 33 м.
Общий поток : 21,8 Мбит/сек
Название фильма : The.Good.Dinosaur.2015.BDRip.2160p.x265.10bit.HDR.Master5
Дата кодирования : UTC 2019-09-11 19:19:33
Программа кодирования : mkvmerge v7.9.0 ('Birds') 64bit
Библиотека кодирования : libebml v1.3.1 + libmatroska v1.4.2

Видео
Идентификатор : 1
Формат : HEVC
Формат/Информация : High Efficiency Video Coding
Коммерческое название : HDR10
Профиль формата : Main 10@L5.1@High
Идентификатор кодека : V_MPEGH/ISO/HEVC
Продолжительность : 1 ч. 33 м.
Битрейт : 20,1 Мбит/сек
Ширина : 3840 пикселей
Высота : 1608 пикселей
Соотношение сторон : 2,40:1
Режим частоты кадров : Постоянный
Частота кадров : 23,976 (24000/1001) кадра/сек
Цветовое пространство : YUV
Субдискретизация насыщенности : 4:2:0 (Type 2)
Битовая глубина : 10 бит
Бит/(Пиксели*Кадры) : 0.136
Размер потока : 13,1 Гбайт (92%)
Заголовок : The.Good.Dinosaur.2015.BDRip.2160p.x265.10bit.HDR.Master5
Библиотека кодирования : x265 3.1+14-f08461fdae33:[Windows][GCC 9.2.0][64 bit] 10bit
Настройки программы : cpuid=1111039 / frame-threads=5 / numa-pools=36 / wpp / no-pmode / no-pme / no-psnr / no-ssim / log-level=2 / input-csp=1 / input-res=3840x1608 / interlace=0 / total-frames=134715 / level-idc=51 / high-tier=1 / uhd-bd=0 / ref=4 / no-allow-non-conformance / repeat-headers / annexb / aud / hrd / info / hash=0 / no-temporal-layers / no-open-gop / min-keyint=1 / keyint=24 / gop-lookahead=0 / bframes=4 / b-adapt=2 / b-pyramid / bframe-bias=0 / rc-lookahead=25 / lookahead-slices=4 / scenecut=40 / radl=0 / no-splice / no-intra-refresh / ctu=64 / min-cu-size=8 / rect / no-amp / max-tu-size=32 / tu-inter-depth=1 / tu-intra-depth=1 / limit-tu=0 / rdoq-level=2 / dynamic-rd=0.00 / no-ssim-rd / signhide / no-tskip / nr-intra=0 / nr-inter=0 / no-constrained-intra / no-strong-intra-smoothing / max-merge=3 / limit-refs=3 / limit-modes / me=3 / subme=3 / merange=57 / temporal-mvp / no-hme / weightp / no-weightb / no-analyze-src-pics / deblock=-3:-3 / no-sao / no-sao-non-deblock / rd=4 / no-early-skip / rskip / no-fast-intra / no-tskip-fast / no-cu-lossless / no-b-intra / no-splitrd-skip / rdpenalty=0 / psy-rd=2.00 / psy-rdoq=1.00 / no-rd-refine / no-lossless / cbqpoffs=0 / crqpoffs=0 / rc=crf / crf=17.0 / qcomp=0.60 / qpstep=4 / stats-write=0 / stats-read=0 / vbv-maxrate=160000 / vbv-bufsize=160000 / vbv-init=0.9 / crf-max=0.0 / crf-min=0.0 / ipratio=1.40 / pbratio=1.30 / aq-mode=2 / aq-strength=1.00 / cutree / zone-count=0 / no-strict-cbr / qg-size=32 / no-rc-grain / qpmax=69 / qpmin=0 / no-const-vbv / sar=1 / overscan=0 / videoformat=5 / range=0 / colorprim=9 / transfer=16 / colormatrix=9 / chromaloc=1 / chromaloc-top=2 / chromaloc-bottom=2 / display-window=0 / master-display=G(13250,34500)B(7500,3000)R(34000,16000)WP(15635,16450)L(10000000,0)cll=0,0 / min-luma=0 / max-luma=1023 / log2-max-poc-lsb=8 / vui-timing-info / vui-hrd-info / slices=1 / no-opt-qp-pps / no-opt-ref-list-length-pps / no-multi-pass-opt-rps / scenecut-bias=0.05 / no-opt-cu-delta-qp / no-aq-motion / hdr / hdr-opt / no-dhdr10-opt / no-idr-recovery-sei / analysis-reuse-level=5 / scale-factor=0 / refine-intra=0 / refine-inter=0 / refine-mv=0 / refine-ctu-distortion=0 / no-limit-sao / ctu-info=0 / no-lowpass-dct / refine-analysis-type=0 / copy-pic=1 / max-ausize-factor=1.0 / no-dynamic-refine / no-single-sei / no-hevc-aq / no-svt / no-field / qp-adaptation-range=1.00
Default : Да
Forced : Нет
Цветовой диапазон : Limited
Основные цвета : BT.2020
Характеристики трансфера : PQ
Коэффициенты матрицы : BT.2020 non-constant
MasteringDisplay_ColorPrimaries : Display P3
MasteringDisplay_Luminance : min: 0.0000 cd/m2, max: 1000 cd/m2

Аудио #1
Идентификатор : 2
Формат : AC-3
Формат/Информация : Audio Coding 3
Коммерческое название : Dolby Digital
Идентификатор кодека : A_AC3
Продолжительность : 1 ч. 33 м.
Вид битрейта : Постоянный
Битрейт : 640 Кбит/сек
Каналы : 6 каналов
Channel layout : L R C LFE Ls Rs
Частота : 48,0 КГц
Частота кадров : 31,250 кадров/сек (1536 SPF)
Битовая глубина : 16 бит
Метод сжатия : С потерями
Размер потока : 429 Мбайт (3%)
Заголовок : Дубляж - Лицензия
Язык : Russian
ServiceKind/String : Complete Main
Default : Да
Forced : Нет

Аудио #2
Идентификатор : 3
Формат : AC-3
Формат/Информация : Audio Coding 3
Коммерческое название : Dolby Digital
Идентификатор кодека : A_AC3
Продолжительность : 1 ч. 33 м.
Вид битрейта : Постоянный
Битрейт : 448 Кбит/сек
Каналы : 6 каналов
Channel layout : L R C LFE Ls Rs
Частота : 48,0 КГц
Частота кадров : 31,250 кадров/сек (1536 SPF)
Битовая глубина : 16 бит
Метод сжатия : С потерями
Задержка видео : 992 мс.
Размер потока : 300 Мбайт (2%)
Заголовок : Лицензия
Язык : Ukrainian
ServiceKind/String : Complete Main
Default : Нет
Forced : Нет

Аудио #3
Идентификатор : 4
Формат : AC-3
Формат/Информация : Audio Coding 3
Коммерческое название : Dolby Digital
Идентификатор кодека : A_AC3
Продолжительность : 1 ч. 33 м.
Вид битрейта : Постоянный
Битрейт : 640 Кбит/сек
Каналы : 6 каналов
Channel layout : L R C LFE Ls Rs
Частота : 48,0 КГц
Частота кадров : 31,250 кадров/сек (1536 SPF)
Битовая глубина : 16 бит
Метод сжатия : С потерями
Размер потока : 429 Мбайт (3%)
Заголовок : Original
Язык : English
ServiceKind/String : Complete Main
Default : Нет
Forced : Нет

Текст #1
Идентификатор : 5
Формат : UTF-8
Идентификатор кодека : S_TEXT/UTF8
Идентификатор кодека/Информация : UTF-8 Plain Text
Продолжительность : 1 ч. 24 м.
Битрейт : 37 бит/сек
ElementCount : 480
Размер потока : 22,8 Кбайт (0%)
Язык : Russian
Default : Нет
Forced : Нет

Текст #2
Идентификатор : 6
Формат : PGS
Режим смешивания : zlib
Идентификатор кодека : S_HDMV/PGS
Идентификатор кодека/Информация : Picture based subtitle format used on BDs/HD-DVDs
Продолжительность : 1 ч. 23 м.
Битрейт : 7902 бит/сек
ElementCount : 1770
Размер потока : 4,73 Мбайт (0%)
Язык : English
Default : Нет
Forced : Нет

Меню
00:00:00.000 : :1. Asteroid
00:03:37.966 : :2. Arlo Is Born
00:06:16.459 : :3. Chores
00:08:14.160 : :4. Make Your Mark
00:12:12.605 : :5. Fireflies
00:14:33.913 : :6. Meet Spot
00:17:42.352 : :7. Arlo Steps Up
00:21:10.644 : :8. Swept Away
00:22:58.167 : :9. Wilderness
00:26:41.057 : :10. Helpless
00:29:02.615 : :11. Spot Investigates
00:33:10.363 : :12. Snake Attack
00:35:28.668 : :13. Pet Collector
00:38:14.458 : :14. Working Together
00:41:08.840 : :15. Orphan Spot
00:45:42.947 : :16. Storm Fear
00:47:47.947 : :17. Ambush
00:51:48.271 : :18. T-Rexes
00:55:46.967 : :19. Rustlers
01:00:22.952 : :20. Campfire
01:03:59.001 : :21. Arlo Herds
01:05:27.213 : :22. Above the Clouds
01:07:11.777 : :23. Spot Taken
01:11:06.427 : :24. Pappa's Help
01:13:43.377 : :25. Into the Storm
01:16:01.430 : :26. Flash Flood
01:19:08.493 : :27. Goodbye Spot
01:23:56.864 : :28. Back Home
01:26:01.113 : :29. End Credits

piratbit.pw



Скачать Хороший динозавр через торрент https://img16.lostpic.net/2019/09/10/0a840decc2272bdd7bbe15cc397b530f.jpg Скачать фильм Хороший динозавр через торрент бесплантно в хорошем качестве Описание: Представьте, что астероид, некогда навсегда изменивший жизнь на Земле, пролетел мимо нашей планеты и гигантские динозавры ... 10 10 2
Торрент: Зарегистрирован [2019-09-12 00:18] · скачан: 6 раз
Статус: √ проверено
Размер: 14.27 GB
Как cкачать? Как скачать Хороший динозавр через торрент | qTorrent

% Раздел Тема Автор DL S | L
Ultra HD (UHD: 2K, 4K, 8K) [ 41.36 GB ] Хороший динозавр / The Good Dinosaur [2015 Мультфильм UHD BDRemux 2160p] DUB [] bober100 Скачать
2 | 0
3D Мультфильмы [ 11.1 GB ] Хороший динозавр / The Good Dinosaur [2015 мультфильм BDRip 1080p от Ash61] 3D-Video / halfOU / РАСКОЛЬНИКОВ Скачать
1 | 0
3D Мультфильмы [ 13.06 GB ] Хороший динозавр в 3Д / The Good Dinosaur 3D [2015 Мультфильм BDrip 1080p] OverUnder / Вертикальная стереопара serega768 Скачать
1 | 0
Иностранные мультфильмы [ 1.46 GB ] Хороший динозавр / The Good Dinosaur [2015 мультфильм BDRip] DUB Twi7ter Скачать
1 | 0
Зарубежные Мультфильмы (BDRip 1080p, 720p, Blu-ray, BD-Remux) [ 22.81 GB ] Хороший динозавр / The Good Dinosaur [2015 мультфильм BDRemux 1080p] Локализованная версия / Dub AVO / Russian Mafia Скачать
1 | 0
Зарубежные Мультфильмы (DVD) [ 6.43 GB ] Хороший динозавр / The Good Dinosaur [2015 мультфильм DVD9] R5 voovaz Скачать
1 | 0
Зарубежные Мультфильмы (BDRip 1080p, 720p, Blu-ray, BD-Remux) [ 41.01 GB ] Хороший динозавр / The Good Dinosaur [2015 мультфильм Blu-ray] Russian Mafia Скачать
1 | 0

28-11-2019 20:33  

Отключить всю рекламу на сайте

    Дорогой пользователь! Огромная просьба, поблагодарите релизера, оцените раздачу и оставьте свои комментарий, если Вы скачали Хороший динозавр через торрент бесплатно! Внесите свою лепту в развитие PiratBit!
    Комментировать посты могут только пользователи прошедшие не сложную регистрацию
    Показать сообщения:    

    Хороший динозавр через торрент
    Скачать бесплатно Хороший динозавр
    Хороший динозавр скачать торрент
    Хороший динозавр смотреть онлайн
    Cкачать фильм Хороший динозавр бесплатно
    Хороший динозавр скачать торрент в хорошем качестве
    Хороший динозавр смотреть онлайн бесплатно в хорошем качестве


    Вы не можете начинать темы
    Вы не можете отвечать на сообщения
    Вы не можете редактировать свои сообщения
    Вы не можете удалять свои сообщения
    Вы не можете голосовать в опросах
    Вы не можете прикреплять файлы к сообщениям
    Вы можете скачивать файлы